<?xml version="1.0" standalone="no"?>
<!DOCTYPE svg PUBLIC "-//W3C//DTD SVG 1.1//EN" "http://www.w3.org/Graphics/SVG/1.1/DTD/svg11.dtd" >
<svg>
<metadata>
Created by FontForge 20090914 at Sat Jun 29 09:27:35 2019
 By www-data
Copyright (c) EuroFONT 94-2000. Wszelkie prawa zastrzezone.
</metadata>
<defs>
<font id="EFNAbsolut" horiz-adv-x="1024" >
  <font-face 
    font-family="EFN Absolut"
    font-weight="400"
    font-stretch="normal"
    units-per-em="2048"
    panose-1="0 0 4 0 0 0 0 0 0 0"
    ascent="1638"
    descent="-410"
    x-height="610"
    cap-height="1599"
    bbox="-573 -781 4093 2019"
    underline-thickness="123"
    underline-position="-195"
    unicode-range="U+0020-U+F005"
  />
<missing-glyph 
d="M128 0v1929h768v-1929h-768zM256 128h512v1673h-512v-1673z" />
    <glyph glyph-name=".notdef" 
d="M128 0v1929h768v-1929h-768zM256 128h512v1673h-512v-1673z" />
    <glyph glyph-name="space" unicode=" " horiz-adv-x="418" 
 />
    <glyph glyph-name="exclam" unicode="!" horiz-adv-x="569" 
d="M381 285l-28.999 -3c7.33301 32 46.666 142 117.999 330l144 385c66 152.667 139.333 266 220 340c42.667 38.667 73 58 91 58c33.333 0 50 -20 50 -60c0 -15.333 -2.33301 -32 -7 -50c-26.667 -103.333 -75.667 -214 -147 -332
c-31.333 -52.667 -99.333 -153.667 -204 -303l-129 -176c-50 -71.333 -85.667 -134.333 -107 -189zM321.001 -12c-71.333 0 -107 34 -107 102c0 28 9 52 27 72s41 30 69 30c29.333 0 55.5 -11.667 78.5 -35s34.5 -50 34.5 -80c0 -26 -10.5 -47.333 -31.5 -64
s-44.5 -25 -70.5 -25z" />
    <glyph glyph-name="quotedbl" unicode="&#x22;" horiz-adv-x="881" 
d="M913 903c-18.667 0 -29.665 7.66699 -32.998 23c-0.666992 2.66699 -0.333984 6.66699 0.999023 12c20.667 10 49 24.667 85 44c24 16 52.667 43 86 81c-53.333 24 -80 59.667 -80 107c0 25.333 9 47.333 27 66s41.333 28 70 28c29.333 0 54.666 -9.66699 75.999 -29
s32 -43.333 32 -72c0 -47.333 -36 -103.333 -108 -168c-68 -61.333 -120 -92 -156 -92zM626.002 903c-18.667 0 -29.665 7.66699 -32.998 23c-0.666992 2.66699 -0.333984 6.66699 0.999023 12c20.667 10 49 24.667 85 44c24 16 52.667 43 86 81
c-53.333 24 -80 59.667 -80 107c0 25.333 9 47.333 27 66s41.333 28 70 28c29.333 0 54.666 -9.66699 75.999 -29s32 -43.333 32 -72c0 -47.333 -36 -103.333 -108 -168c-68 -61.333 -120 -92 -156 -92z" />
    <glyph glyph-name="numbersign" unicode="#" horiz-adv-x="993" 
d="M1218 880h-187l-10 -285h189l-6 -105h-188l-20 -478h-111l19 478h-189l-20 -478h-111l19 478h-197l6 105h197l10 285h-201l3 104h203l20 479h111l-19 -479h189l20 479h111l-19 -479h184zM730 880l-12 -285h192l10 285h-190z" />
    <glyph glyph-name="dollar" unicode="$" horiz-adv-x="1833" 
d="M1218 1067v-1c0.666992 0 0.666992 0.333008 0 1zM777 -20l-68.998 -174.002h-56l77 194c-12.667 6 -25.334 13 -38.001 21l-187 -221l-57 19l198 234c-146.667 120.667 -220 275.667 -220 465c0 161.333 68 302.666 204 423.999c131.333 118 278.666 177 441.999 177
c38 0 73.667 -3.66699 107 -11l140 354h61l-150 -369c19.333 -7.33301 38 -15.666 56 -24.999l156 394l57 -2l-171 -421c53.333 -41.333 95.333 -98 126 -170l308 268c10 64.667 30 160.334 60 287.001c15.333 48.667 44 93.667 86 135c47.333 46 94.666 69 141.999 69
c57.333 0 86 -26.333 86 -79c0 -68 -85.333 -181.333 -256 -340l-52 -423c-26.667 -189.333 -59.667 -321.666 -99 -396.999c-152 -294 -412 -441 -780 -441c-18.667 0 -37.667 1 -57 3l-58 -147h-59l61 158c-19.333 4.66699 -38.666 10.667 -57.999 18zM2097 1532
c0 28.667 -12.668 43 -38.001 43c-44 0 -87.667 -51.333 -131 -154c-13.333 -31.333 -27.666 -88.666 -42.999 -171.999c141.333 135.333 212 229.666 212 282.999zM1754 1094l-289 -262.001c14.667 -52 22 -106 22 -162s-7 -112.667 -21 -170l-25 2
c15.333 56 23 112.667 23 170c0 48 -5.33301 96 -16 144c-239.333 -222.667 -485 -480 -737 -772c70.667 -44.667 147 -67 229 -67c156.667 0 287 45.333 391 136c73.333 64.667 155 178.334 245 341.001c48 86 87 190 117 312c16.667 68 37 177.333 61 328zM1435 853.997
c-61.333 153.333 -185.333 229.998 -372 229.998c-152.667 0 -284 -63.333 -394 -190c-105.333 -121.333 -158 -259.666 -158 -414.999c0 -163.333 52 -296.666 156 -399.999c249.333 286.667 505.333 545 768 775z" />
    <glyph glyph-name="percent" unicode="%" horiz-adv-x="1423" 
d="M263 -63l-12.999 -4.99902c-6.66699 17.333 -10 31.666 -10 42.999c0 38.667 27.333 93 82 163c25.333 33.333 74 87.333 146 162l462 479c64.667 55.333 159 141 283 257l122 127c-54 -13.333 -135.667 -27.333 -245 -42c-36.667 -72 -81.334 -135 -134.001 -189
c-68 -71.333 -133 -107 -195 -107c-52 0 -94.167 18.333 -126.5 55s-48.5 81.334 -48.5 134.001c0 94.667 40 196.334 120 305.001c84.667 116 172.667 174 264 174c51.333 0 92 -18.333 122 -55c27.333 -34 41 -77.333 41 -130c0 -26.667 -6.66699 -69.334 -20 -128.001
c70 4 121 8.33301 153 13c60 9.33301 108 25 144 47c2 0.666992 54.667 40.667 158 120c80.667 61.333 132 92 154 92c26.667 0 40 -12.333 40 -37c0 -32 -44.667 -76.333 -134 -133l-179 -103c-14.667 -8.66699 -33 -25.334 -55 -50.001l-451 -495
c-64.667 -64 -160.667 -153 -288 -267c-133.333 -119.333 -229.333 -208 -288 -266c-40 -39.333 -74.667 -94 -104 -164zM1135 -10.999c-55.333 0 -99.998 19.333 -133.998 58c-32.667 37.333 -49 84 -49 140c0 95.333 37.333 194 112 296c80 110 165.667 165 257 165
c48.667 0 89.667 -17.333 123 -52s50 -76.334 50 -125.001c0 -67.333 -16.333 -136.666 -49 -207.999s-74.334 -130 -125.001 -176c-72.667 -65.333 -134.334 -98 -185.001 -98zM1015 1418c-25.333 0 -46 -13 -62 -39c-14 -22.667 -21 -47.334 -21 -74.001
c0 -56 25.333 -95.667 76 -119c44 32.667 66 82.334 66 149.001c0 55.333 -19.667 83 -59 83zM876.003 1291c-38 -52.667 -72.667 -111.667 -104 -177c-38.667 -80.667 -58 -144.667 -58 -192c0 -32 8.66699 -48 26 -48c61.333 0 147.333 85 258 255
c-65.333 49.333 -106 103.333 -122 162zM1353 594.001c-40 0 -99.001 -71.668 -177.001 -215.001c-74.667 -137.333 -112 -231.666 -112 -282.999c0 -44.667 17 -67 51 -67c64.667 0 132.334 65.333 203.001 196c63.333 118 95 213.667 95 287c0 54.667 -20 82 -60 82z" />
    <glyph glyph-name="ampersand" unicode="&#x26;" horiz-adv-x="2208" 
d="M2127 512l0.00292969 -18.0039c3.33301 -145.333 -79 -268.666 -247 -369.999c-147.333 -88 -299 -132 -455 -132c-380 0 -570 124.667 -570 374c0 89.333 40.667 166.333 122 231c61.333 48.667 150.333 93 267 133l267 82c-42 26.667 -92 68.334 -150 125.001
c-34.667 -2.66699 -63.667 -4 -87 -4c-138.667 0 -268.334 28 -389.001 84c-150.667 71.333 -226 168.333 -226 291c0 85.333 42.667 151 128 197c70 38 151.667 57 245 57c59.333 0 124.333 -6 195 -18c102 -16 155 -39.333 159 -70
c-31.333 2.66699 -87.333 12.667 -168 30c-70 14.667 -126.667 22 -170 22c-77.333 0 -144 -20 -200 -60c-63.333 -44.667 -95 -104 -95 -178c0 -212 195.333 -318 586 -318c-4 24 -6 46.667 -6 68c0 151.333 89 264 267 338c130.667 54 285 81 463 81
c84 0 156.333 -10.667 217 -32c88 -30 132 -79 132 -147c0 -100 -125 -186 -375 -258c-192 -55.333 -361.333 -84.666 -508 -87.999c-2 -10 -3 -18.667 -3 -26c0 -16 8.16699 -33.833 24.5 -53.5s32.5 -29.5 48.5 -29.5c27.333 0 68.166 2.83301 122.499 8.5
s95.166 8.5 122.499 8.5c53.333 0 80 -17.333 80 -52c0 -27.333 -29.333 -41 -88 -41c-92.667 0 -173 11.667 -241 35l-83 -16c-113.333 -22.667 -215.666 -76 -306.999 -160c-100 -92.667 -150 -193.334 -150 -302.001c0 -90.667 31 -160.667 93 -210
c56.667 -45.333 131.667 -68 225 -68c277.333 0 474.666 79.667 591.999 239c31.333 42.667 47 83.334 47 122.001c0 80.667 -34.667 121 -104 121c-190 0 -327 -12 -411 -36c-44 -12.667 -84.333 -37 -121 -73l-14 2l-10 15c1.33301 18.667 16 42 44 70
c20 20 43.333 40.667 70 62c67.333 53.333 175 86.333 323 99c117.333 3.33301 234.333 7 351 11l262 14c43.333 2.66699 80.333 9.66699 111 21c18 6.66699 47.333 20.334 88 41.001l8 -11c0 -10.667 -5 -23.667 -15 -39c-47.333 -70.667 -116.666 -118.667 -208 -144
c-55.333 -14.667 -141.666 -24 -259 -28zM2095 1425c-130 0 -253.999 -33 -371.999 -99c-138.667 -78 -208 -176.667 -208 -296c0 -16.667 1.33301 -34 4 -52c149.333 2.66699 304.666 27.667 465.999 75c219.333 65.333 329 151.333 329 258c0 76 -73 114 -219 114z" />
    <glyph glyph-name="quotesingle" unicode="'" horiz-adv-x="420" 
d="M469 903c-18 0 -28.665 7.66699 -31.998 23c-0.666992 2.66699 -0.333984 6.66699 0.999023 12c20.667 10 48.667 24.667 84 44c24.667 16 53.667 43 87 81c-53.333 24 -80 59.667 -80 107c0 25.333 9 47.333 27 66s41.333 28 70 28c29.333 0 54.666 -9.66699 75.999 -29
s32 -43.333 32 -72c0 -47.333 -36 -103.333 -108 -168c-68 -61.333 -120.333 -92 -157 -92z" />
    <glyph glyph-name="parenleft" unicode="(" horiz-adv-x="612" 
d="M342 -220c-23.333 0 -34.998 11.334 -34.998 34.001c0 50 5.66699 116.667 17 200c34.667 255.333 119.667 512 255 770c101.333 194 250.666 421 447.999 681c83.333 110 143 165 179 165c8.66699 0 22.334 -2.33301 41.001 -7c-64.667 -86 -157.667 -218 -279 -396
c-174.667 -282.667 -330.334 -597.334 -467.001 -944.001l-65 -161c-22.667 -62.667 -37.334 -118.334 -44.001 -167.001c-2 -23.333 -6.66699 -58.666 -14 -105.999c-9.33301 -46 -21.333 -69 -36 -69z" />
    <glyph glyph-name="parenright" unicode=")" horiz-adv-x="639" 
d="M31 -212c-8.66699 0 -22.333 2.33301 -41 7c306 414.667 554.667 861 746 1339l65 161c23.333 62.667 38.333 118.667 45 168c2.66699 23.333 8.16699 58.5 16.5 105.5s19.5 70.5 33.5 70.5c22 0 33 -12 33 -36c0 -397.333 -182 -872.333 -546 -1425l-174 -223
c-86 -111.333 -145.333 -167 -178 -167z" />
    <glyph glyph-name="asterisk" unicode="*" horiz-adv-x="889" 
d="M993 942l2.00098 2.00195c39.333 -46 59 -94.667 59 -146c0 -34.667 -9.66699 -68.334 -29 -101.001c-38.667 42 -61.334 114.667 -68.001 218c-44.667 -56 -96.334 -84 -155.001 -84c-13.333 0 -30.666 2.33301 -51.999 7c14.667 71.333 68.667 118.333 162 141
c-142.667 55.333 -217.667 100 -225 134c-4.66699 22.667 6.33301 34 33 34c41.333 0 114 -42.333 218 -127c-22.667 78.667 -29.334 162.334 -20.001 251.001c38 -52.667 60.667 -132.334 68 -239.001c48 66 118.333 100.333 211 103
c-17.333 -54 -79.666 -105.667 -186.999 -155c72.667 -22.667 155 -73.334 247 -152.001c-110.667 6 -198.667 44 -264 114z" />
    <glyph glyph-name="plus" unicode="+" horiz-adv-x="1413" 
d="M1507 675h-445l-155 -452l-139 8l159 444h-459l45 120h457l158 448l139 -8l-160 -440h444z" />
    <glyph glyph-name="comma" unicode="," horiz-adv-x="406" 
d="M101 -188l-31 26c76.667 38.667 136 81.334 178 128.001c-53.333 23.333 -80 59 -80 107c0 25.333 9 47.166 27 65.499s41.333 27.5 70 27.5c30 0 55.5 -9.83301 76.5 -29.5s31.5 -44.5 31.5 -74.5c0 -42.667 -29.667 -89 -89 -139
c-49.333 -41.333 -110.333 -78.333 -183 -111z" />
    <glyph glyph-name="hyphen" unicode="-" horiz-adv-x="811" 
d="M642 368c-32.667 0 -76 7.66797 -130 23.001c-62.667 18 -105.334 28.667 -128.001 32c-9.33301 0.666992 -47 1 -113 1c-20 0 -29.667 8 -29 24c8.66699 16.667 37.667 32 87 46c42 12 76 18 102 18c31.333 0 76.833 -7.5 136.5 -22.5s105.167 -22.5 136.5 -22.5
c22 0 49 7.5 81 22.5s54.667 22.5 68 22.5c22 0 33 -9.66699 33 -29c0 -9.33301 -12.333 -24 -37 -44c-37.333 -30.667 -69 -50.334 -95 -59.001c-23.333 -8 -60.666 -12 -111.999 -12z" />
    <glyph glyph-name="hyphen" unicode="&#x2010;" horiz-adv-x="811" 
d="M642 368c-32.667 0 -76 7.66797 -130 23.001c-62.667 18 -105.334 28.667 -128.001 32c-9.33301 0.666992 -47 1 -113 1c-20 0 -29.667 8 -29 24c8.66699 16.667 37.667 32 87 46c42 12 76 18 102 18c31.333 0 76.833 -7.5 136.5 -22.5s105.167 -22.5 136.5 -22.5
c22 0 49 7.5 81 22.5s54.667 22.5 68 22.5c22 0 33 -9.66699 33 -29c0 -9.33301 -12.333 -24 -37 -44c-37.333 -30.667 -69 -50.334 -95 -59.001c-23.333 -8 -60.666 -12 -111.999 -12z" />
    <glyph glyph-name="period" unicode="." horiz-adv-x="412" 
d="M253 -12c-71.333 0 -106.333 30 -105 90c0.666992 24 9 44.667 25 62c18.667 18.667 42.667 28 72 28c28 0 53.5 -10 76.5 -30s34.5 -43.667 34.5 -71c0 -22 -10.333 -40.667 -31 -56s-44.667 -23 -72 -23z" />
    <glyph glyph-name="slash" unicode="/" horiz-adv-x="688" 
d="M367 -3l-6.99902 -6.00098c-20.667 2.66699 -31 23.334 -31 62.001c0 62.667 32.333 157 97 283c10 20 61.667 111.333 155 274c75.333 131.333 186.333 289 333 473c28 35.333 53 81.333 75 138l56 145c2.66699 6.66699 6 10 10 10c19.333 0 29 -14 29 -42
c0 -64 -57.333 -183 -172 -357c-86.667 -124 -211.334 -313.667 -374.001 -569c-64 -110 -121 -247 -171 -411z" />
    <glyph glyph-name="zero" unicode="0" horiz-adv-x="1238" 
d="M536 14c-88.667 0 -159.334 31.332 -212.001 93.999c-50 59.333 -75 134 -75 224c0 166.667 96 360 288 580c125.333 142.667 266 244.667 422 306c92 36 174.667 54 248 54c185.333 0 278 -102.667 278 -308c0 -136 -51 -280.333 -153 -433
c-97.333 -145.333 -218.666 -266.666 -363.999 -363.999c-152.667 -102 -296.667 -153 -432 -153zM1234 1230c-50.667 0 -90.667 -5.66699 -120 -17c-118.667 -46 -272 -196.667 -460 -452c-192 -260.667 -288 -455 -288 -583c0 -84.667 42.333 -127 127 -127
c128.667 0 270 80.333 424 241c113.333 118 214.333 255 303 411c96 168.667 144 296.667 144 384c0 95.333 -43.333 143 -130 143z" />
    <glyph glyph-name="one" unicode="1" horiz-adv-x="818" 
d="M1126 1231c-25.333 -52.667 -65.333 -116.668 -120 -192.001l-135 -184c-240 -352 -402.667 -632.333 -488 -841h-182c-1.33301 8 -2 16 -2 24c0 74 88 219.667 264 437l351 430l-340 -258c-2 -2 -9 1.66699 -21 11c22.667 20.667 114.667 96.334 276 227.001
c112 91.333 197 174.333 255 249l56 73c26.667 30 50.667 45 72 45c9.33301 0 14 -5.66699 14 -17v-4z" />
    <glyph glyph-name="two" unicode="2" horiz-adv-x="1090" 
d="M184 102c85.333 30.667 157.337 46 216.004 46c30 0 75 -1 135 -3s105 -3 135 -3c132.667 0 224 23.333 274 70c10 -9.33301 15 -19 15 -29c0 -8.66699 -3.66699 -20.667 -11 -36c-28.667 -55.333 -67 -93 -115 -113c-36 -14.667 -88.667 -22 -158 -22
c-28.667 0 -71.834 1.16699 -129.501 3.5s-100.834 3.5 -129.501 3.5c-71.333 0 -123 -2.33301 -155 -7c-38 -6 -87.333 -20.333 -148 -43c-10.667 17.333 -16 30 -16 38c0 7.33301 2.66699 17 8 29c11.333 26.667 33.666 63 66.999 109c28 38.667 117.333 100 268 184
l311 168c89.333 52 174.666 126.333 255.999 223c94.667 112.667 142 212 142 298c0 60 -19.167 108.833 -57.5 146.5s-87.5 56.5 -147.5 56.5c-91.333 0 -185.333 -37 -282 -111c-103.333 -78.667 -155 -162.334 -155 -251.001c0 -78.667 36 -118 108 -118
c28.667 0 59.334 11.333 92.001 34c-51.333 23.333 -77 55 -77 95c0 22.667 8.33301 43.5 25 62.5s36.334 28.5 59.001 28.5c26.667 0 49.167 -9.83301 67.5 -29.5s27.5 -43.167 27.5 -70.5c0 -32.667 -19.333 -65.834 -58 -99.501s-74.667 -50.5 -108 -50.5
c-112.667 0 -169 55.333 -169 166c0 104.667 64.667 198 194 280c115.333 73.333 228.666 110 339.999 110c93.333 0 170.666 -26 231.999 -78c65.333 -55.333 98 -129 98 -221c0 -113.333 -71 -221.666 -213 -324.999c-56.667 -41.333 -177.667 -109.666 -363 -204.999
l-421 -217c-50 -25.333 -102.333 -65 -157 -119z" />
    <glyph glyph-name="three" unicode="3" horiz-adv-x="1131" 
d="M744 738c246 -25.333 369.004 -116.669 369.004 -274.002c0 -100.667 -52.667 -199 -158 -295c-95.333 -86.667 -196 -141.667 -302 -165c-51.333 -10.667 -105 -16 -161 -16c-84.667 0 -158.334 18.333 -221.001 55c-74.667 44.667 -112 106.334 -112 185.001
c0 50 16.167 93.167 48.5 129.5s73.166 54.5 122.499 54.5c37.333 0 70.833 -12.667 100.5 -38s44.5 -56.333 44.5 -93c0 -28 -9.33301 -51.5 -28 -70.5s-42.334 -28.5 -71.001 -28.5c-22.667 0 -43.667 10 -63 30s-29 41.333 -29 64c0 26.667 25.333 59.667 76 99
c-47.333 -2 -86 -16.333 -116 -43c-32 -28.667 -48 -66.334 -48 -113.001c0 -69.333 31.667 -122.666 95 -159.999c51.333 -30 114.666 -45 189.999 -45c104 0 207 58 309 174c99.333 112.667 149 221.667 149 327c0 45.333 -15.667 85.666 -47 120.999
s-69.666 53.333 -114.999 54h-47c-25.333 0 -56.666 -9 -93.999 -27s-65 -27 -83 -27c-12 0 -18 5 -18 15c0 18 44.333 48.333 133 91l167 75c114.667 52.667 272.667 150.334 474 293.001c-54 -6 -212.333 -9 -475 -9c-66 0 -118.667 -13.333 -158 -40
c-46.667 -32 -72.334 -48.667 -77.001 -50c-10 4.66699 -15 9.33398 -15 14.001c0 10.667 13.333 37 40 79c60 93.333 175 140 345 140c22 0 54.667 -0.666992 98 -2s75.666 -2 96.999 -2c134 0 221.333 7.66699 262 23c22.667 -2.66699 34 -11.334 34 -26.001
c0 -12.667 -13 -34 -39 -64l-53 -61c-36 -41.333 -133.333 -106.666 -292 -195.999z" />
    <glyph glyph-name="four" unicode="4" horiz-adv-x="1122" 
d="M144 436c0 -38 59.666 -57.001 178.999 -57.001c140 0 254.667 5 344 15c200 260.667 387.333 484 562 670c12 -2 18 -6 18 -12c0 -14 -21 -53.333 -63 -118c-110 -171.333 -217.667 -350 -323 -536h71c19.333 0 47.833 5 85.5 15s66.167 15 85.5 15
c15.333 0 23 -6.66699 23 -20c0 -18 -42.333 -30.667 -127 -38c-53.333 -3.33301 -106.333 -6.33301 -159 -9c-28.667 -50 -91 -165.667 -187 -347h-186c13.333 50.667 37.333 108 72 172l92 163c-82 -5.33301 -136.667 -8 -164 -8h-215c-97.333 0 -146 28.667 -146 86
c0 42 46.667 99 140 171c58 44.667 152.333 107.334 283 188.001c122 75.333 195.667 123.666 221 144.999c118.667 102.667 213.334 212.334 284.001 329.001c50 6 94.333 9 133 9c34 0 73.333 -5.66699 118 -17c-97.333 -98 -232 -200 -404 -306l-415 -240
c-214.667 -131.333 -322 -221.333 -322 -270z" />
    <glyph glyph-name="five" unicode="5" horiz-adv-x="1117" 
d="M928 1113c-93.333 0 -163.666 -11.668 -210.999 -35.001c-38.667 -20 -73.334 -56 -104.001 -108l-100 -183c115.333 36.667 197 55 245 55c89.333 0 166.666 -27 231.999 -81c68.667 -57.333 103 -129.666 103 -216.999c0 -91.333 -38.333 -184.666 -115 -279.999
c-68.667 -85.333 -148 -151 -238 -197c-107.333 -54 -230.666 -81 -369.999 -81c-72 0 -134.667 21.667 -188 65c-55.333 47.333 -83 106.333 -83 177c0 54.667 17.667 101.167 53 139.5s80 57.5 134 57.5c34.667 0 65.334 -12.667 92.001 -38s40 -55 40 -89
c0 -28 -10.167 -50.833 -30.5 -68.5s-44.5 -26.834 -72.5 -27.501c-54.667 22 -82 54.333 -82 97c0 26.667 18 58.667 54 96c-46.667 -6.66699 -84.5 -26.167 -113.5 -58.5s-43.5 -71.833 -43.5 -118.5c0 -64 26.667 -116 80 -156c48.667 -35.333 106 -53 172 -53
c75.333 0 142 18.333 200 55c80 50.667 152.667 127 218 229c70 108 105 206 105 294c0 60.667 -16.333 111.334 -49 152.001c-35.333 43.333 -82.666 65 -141.999 65c-42 0 -87.667 -12 -137 -36l-126 -70c-14.667 2 -22 8.66699 -22 20v3l151 259l64 120
c25.333 48 50.666 85.333 75.999 112c22.667 24 55 39 97 45c17.333 2.66699 54.666 4 111.999 4c23.333 0 58.666 -0.666992 105.999 -2s83 -2 107 -2c50.667 0 138 16 262 48l7 -5c0 -11.333 -6.33301 -26.333 -19 -45c-27.333 -40.667 -59.666 -75.334 -96.999 -104.001
c-26 -20.667 -84.667 -33 -176 -37c-9.33301 -0.666992 -73 -1 -191 -1z" />
    <glyph glyph-name="six" unicode="6" horiz-adv-x="1159" 
d="M1233 925c-30.667 0 -58.332 11.665 -82.999 34.998s-37 50 -37 80c0 26.667 9.33301 49.834 28 69.501s41.334 29.5 68.001 29.5c25.333 0 48.166 -8.66699 68.499 -26s30.5 -38.333 30.5 -63c0 -22 -14.333 -47.333 -43 -76l-30 -30
c97.333 26.667 146 79.334 146 158.001c0 42.667 -18.667 79.334 -56 110.001c-34.667 28 -73.667 42 -117 42c-199.333 0 -433.333 -177.667 -702 -533c116 65.333 203.333 98 262 98c83.333 0 155 -32.833 215 -98.5s90 -140.834 90 -225.501
c0 -125.333 -66.333 -243.333 -199 -354c-127.333 -106 -255.333 -159 -384 -159c-98.667 0 -180.667 38.667 -246 116c-61.333 74 -92 161.333 -92 262c0 103.333 42.333 223 127 359c156.667 252 374.667 422.667 654 512c109.333 34.667 196 52 260 52
c58 0 109 -18 153 -54c46.667 -38.667 70 -86.667 70 -144c0 -45.333 -18.833 -83.333 -56.5 -114s-79.834 -46 -126.501 -46zM751.002 781.998c-47.333 0 -112.668 -29.6689 -196.001 -89.002c-80.667 -57.333 -146 -126 -196 -206c-56 -89.333 -84 -179.666 -84 -270.999
c0 -55.333 14.333 -100.666 43 -135.999c30.667 -39.333 73 -59 127 -59c106 0 213 70.667 321 212c102 134 153 256 153 366c0 52 -14.667 95 -44 129c-31.333 36 -72.666 54 -123.999 54z" />
    <glyph glyph-name="seven" unicode="7" horiz-adv-x="962" 
d="M272 14l-196 -0.000976562c42.667 103.333 128.334 229.666 257.001 378.999c103.333 120 241 246.333 413 379c226 174.667 369.333 289.334 430 344.001c-118 -12 -176.667 -18 -176 -18c-34.667 0 -86.667 1.16699 -156 3.5s-121.333 3.5 -156 3.5
c-67.333 0 -114.333 -3.66699 -141 -11s-67.667 -28.666 -123 -63.999l-16 9c0.666992 12 8 30 22 54c15.333 28.667 42.333 66.667 81 114c26.667 22 71 33 133 33c38.667 0 96.5 -0.666992 173.5 -2s134.833 -2 173.5 -2c50.667 0 93.667 1 129 3
c15.333 1.33301 47.666 5.33301 96.999 12c40 5.33301 72.667 8 98 8c-18.667 -55.333 -60.667 -117 -126 -185l-406 -416c-236 -249.333 -406.333 -464 -511 -644z" />
    <glyph glyph-name="eight" unicode="8" horiz-adv-x="1117" 
d="M1160 789c-60.667 -32 -165.665 -68.666 -314.998 -109.999c130.667 -152.667 196 -273.667 196 -363c0 -77.333 -38.667 -147.333 -116 -210c-65.333 -52.667 -142 -89.334 -230 -110.001c-54.667 -12.667 -112.667 -19 -174 -19c-104 0 -198.333 22 -283 66
c-101.333 53.333 -162 128 -182 224c-3.33301 14.667 -5 29 -5 43c0 70.667 36 135 108 193c57.333 46 126.666 81.667 207.999 107c50.667 12 133 33 247 63c-54.667 80 -88.334 150.667 -101.001 212c-4.66699 20 -7 39.667 -7 59c0 94 48 170 144 228
c84 50.667 181 76 291 76c79.333 0 154 -16.667 224 -50c84.667 -40.667 134.667 -96.667 150 -168c3.33301 -14 5 -27.333 5 -40c0 -77.333 -53.333 -144.333 -160 -201zM969.002 1210c-139.333 0 -234.332 -52.334 -284.999 -157.001c-23.333 -48 -31 -91.333 -23 -130
c8 -35.333 27.333 -72.666 58 -111.999s64 -70 100 -92c99.333 24.667 174.333 54.667 225 90c65.333 46.667 106.666 110.667 123.999 192c2.66699 14.667 4 29 4 43c0 50.667 -19 91 -57 121s-86.667 45 -146 45zM654.003 635
c-114.667 -13.333 -214.667 -49.332 -300 -107.999c-100 -68.667 -150 -152.334 -150 -251.001c0 -20 2.33301 -40.667 7 -62c28.667 -136 132.667 -204 312 -204c90 0 170 23 240 69c79.333 50.667 119 116 119 196c0 16.667 -2 33.667 -6 51
c-12 58 -39.333 113.667 -82 167c-27.333 34.667 -74 82 -140 142z" />
    <glyph glyph-name="nine" unicode="9" horiz-adv-x="1043" 
d="M286 -12c-56 0 -106.334 17.3281 -151.001 51.9951c-47.333 38.667 -71 85.334 -71 140.001c0 42.667 16.5 80.834 49.5 114.501s70.833 50.5 113.5 50.5c36.667 0 68.334 -10.333 95.001 -31c29.333 -22 44 -51 44 -87c0 -25.333 -9.16699 -47.666 -27.5 -66.999
s-40.5 -29 -66.5 -29s-48.667 8.66699 -68 26c-21.333 18 -32 39.667 -32 65c0 18.667 23.667 53.334 71 104.001c-96.667 -22 -145 -75.333 -145 -160c0 -41.333 19 -77 57 -107c35.333 -28.667 74 -43 116 -43c102 0 219.333 50 352 150
c110.667 84 202.667 177.333 276 280l73 101c-117.333 -64.667 -204.333 -97 -261 -97c-83.333 0 -155.666 33.667 -216.999 101c-58.667 66 -88 141 -88 225c0 128 67.667 246.333 203 355c128.667 104 258.667 156 390 156c95.333 0 173 -34 233 -102
c56.667 -65.333 85 -145.666 85 -240.999c0 -144 -57 -293.333 -171 -448c-106 -144 -239 -264.333 -399 -361c-164.667 -98 -318.334 -147 -461.001 -147zM1036 1249c-102 0 -208.335 -70.333 -319.002 -211c-106.667 -134 -160 -253.667 -160 -359
c0 -52 15.667 -96.333 47 -133c32.667 -38.667 74.334 -58 125.001 -58c52.667 0 117.834 29 195.501 87s142.167 126.333 193.5 205c59.333 90.667 89 178.334 89 263.001c0 57.333 -14 104.666 -42 141.999c-30.667 42.667 -73.667 64 -129 64z" />
    <glyph glyph-name="colon" unicode=":" horiz-adv-x="449" 
d="M478 439c-57.333 0 -90.667 22.668 -100 68.001c-2 9.33301 -3 18.666 -3 27.999c0 69.333 30.667 104 92 104c27.333 0 53.333 -11.833 78 -35.5s37 -49.167 37 -76.5c0 -24.667 -10.667 -45.5 -32 -62.5s-45.333 -25.5 -72 -25.5zM287.999 -11.999
c-71.333 0 -106.665 33.001 -105.998 99.001c0 27.333 8.66699 50.833 26 70.5s40.666 29.5 69.999 29.5s55.333 -11.333 78 -34s34 -48.667 34 -78c0 -24.667 -10.333 -45.334 -31 -62.001s-44.334 -25 -71.001 -25z" />
    <glyph glyph-name="semicolon" unicode=";" horiz-adv-x="483" 
d="M483 439c-73.333 0 -109 33.333 -107 100c0.666992 27.333 9.66699 50.833 27 70.5s39.333 29.5 66 29.5c28 0 54.167 -12.167 78.5 -36.5s36.5 -50.5 36.5 -78.5c0 -24.667 -9.83301 -45 -29.5 -61s-43.5 -24 -71.5 -24zM132 -194
c-18.667 0 -29.666 8.00098 -32.999 24.001c-0.666992 3.33301 -0.333984 7.66602 0.999023 12.999c71.333 37.333 128 80.666 170 129.999c-53.333 24 -80 61 -80 111c0 26.667 9 49.5 27 68.5s41.333 28.5 70 28.5c29.333 0 54.5 -10 75.5 -30s31.5 -44.667 31.5 -74
c0 -49.333 -35.667 -107.666 -107 -174.999c-67.333 -64 -119 -96 -155 -96z" />
    <glyph glyph-name="less" unicode="&#x3c;" horiz-adv-x="655" 
d="M387 397c10.667 -46 39.333 -102.668 86 -170.001l106 -144c8 -10.667 18 -27 30 -49c-0.666992 -9.33301 -5.33398 -14 -14.001 -14c-51.333 0 -156 131.333 -314 394c72.667 76.667 120.667 125.334 144 146.001c69.333 61.333 126.333 92 171 92c24 0 36 -8 36 -24
c0 -2 -0.666992 -3.66699 -2 -5c-18 -26 -63.667 -64.333 -137 -115c-63.333 -44 -98.666 -81 -105.999 -111z" />
    <glyph glyph-name="equal" unicode="=" horiz-adv-x="1411" 
d="M1564 641h-1038l45 110h1038zM1484 435h-1038l45 111h1038z" />
    <glyph glyph-name="greater" unicode="&#x3e;" horiz-adv-x="670" 
d="M583 124c-76.667 -68 -131 -101.999 -163 -101.999c-25.333 0 -40.333 10.333 -45 31c-4 19.333 16 42 60 68l92 48c44.667 29.333 67 62 67 98c0 39.333 -23.667 99 -71 179c-18 29.333 -50.333 78.333 -97 147c-16 23.333 -25.667 39.666 -29 48.999
c3.33301 8 8 12.667 14 14c36.667 -4.66699 93 -61 169 -169c32.667 -45.333 80.667 -120 144 -224l1 -3c-28 -28.667 -75.333 -74 -142 -136z" />
    <glyph glyph-name="question" unicode="?" horiz-adv-x="1204" 
d="M801 354c0 -48.667 24.668 -73.001 74.001 -73.001c8 0 27 6.66699 57 20c11.333 -4.66699 17 -10.334 17 -17.001c0 -26 -29 -39 -87 -39c-70.667 0 -106 40.667 -106 122c0 56.667 41 110.667 123 162l192 110c82.667 62.667 152 134.334 208 215.001
c68 97.333 102 189 102 275c0 68.667 -23 127 -69 175s-103.333 72 -172 72c-104.667 0 -209.334 -38.667 -314.001 -116c-113.333 -82.667 -170 -174.667 -170 -276c0 -42 11.333 -77.333 34 -106c24.667 -31.333 57.667 -47 99 -47c43.333 0 78 12.333 104 37
c18.667 17.333 39 49.333 61 96h7c15.333 0 23 -11.333 23 -34c0 -33.333 -22.667 -66 -68 -98c-42 -30 -80.667 -45 -116 -45c-52.667 0 -98 20.167 -136 60.5s-57 86.833 -57 139.5c0 120.667 64 227.334 192 320.001c116.667 84.667 237.667 127 363 127
c110.667 0 209.667 -33 297 -99c95.333 -72 143 -161.333 143 -268c0 -168.667 -146 -323.667 -438 -465l-215 -98c-98.667 -52.667 -148 -102.667 -148 -150zM759.001 -12.001c-70.667 0 -106 34 -106 102c0 28 8.83301 52 26.5 72s40.5 30 68.5 30
c30 0 56.333 -11.667 79 -35s34 -50 34 -80c0 -26 -10.5 -47.333 -31.5 -64s-44.5 -25 -70.5 -25z" />
    <glyph glyph-name="at" unicode="@" horiz-adv-x="1782" 
d="M1288 245c-84.667 0 -126.998 36.9971 -126.998 110.997c0 18.667 6.66699 50.667 20 96c-160.667 -126 -278.667 -189 -354 -189c-66.667 0 -100 37 -100 111c0 116 75.333 236.333 226 361c145.333 120 278.333 180 399 180c60.667 0 91.667 -38 93 -114l69 94h110
l-222 -282c-130 -169.333 -195 -264.333 -195 -285c0 -34.667 26.333 -52 79 -52c126 0 235 45 327 135s138 196.667 138 320c0 149.333 -56.667 273 -170 371c-108.667 93.333 -240.334 140 -395.001 140c-182.667 0 -336.834 -61.167 -462.501 -183.5
s-188.5 -273.166 -188.5 -452.499c0 -169.333 62 -313.666 186 -432.999s272.667 -179 446 -179c242.667 0 430 112.667 562 338h46c-140.667 -254.667 -344 -382 -610 -382c-186.667 0 -346 64 -478 192s-198 283.333 -198 466c0 186.667 66.5 346.334 199.5 479.001
s294.833 199 485.5 199c168 0 312 -50 432 -150c126.667 -105.333 190 -239 190 -401c0 -135.333 -50 -250.833 -150 -346.5s-219.333 -143.5 -358 -143.5zM1358 882.997c-72 0 -186.5 -74 -343.5 -222s-235.5 -256.333 -235.5 -325c0 -26.667 14 -40 42 -40
c87.333 0 207.5 68.167 360.5 204.5s229.5 245.833 229.5 328.5c0 36 -17.667 54 -53 54z" />
    <glyph glyph-name="A" unicode="A" horiz-adv-x="2591" 
d="M2596 358c91.333 10.667 191 64.665 299 161.998l14 -15c-73.333 -85.333 -182.333 -148 -327 -188l-124 -305h-83c56.667 140 101.334 244.667 134 314c-62 3.33301 -112.333 23.333 -151 60c-40.667 38 -61 87.667 -61 149c0 52.667 17.5 96.334 52.5 131.001
s78.833 52 131.5 52c72.667 0 115.334 -47.333 128 -142l301 660l163 368c-319.333 -52.667 -580.333 -260 -783 -622l-505 -951c-242.667 -327.333 -581.667 -491 -1017 -491c-196 0 -364 55.667 -504 167c-151.333 120.667 -227 276 -227 466
c0 235.333 89 435.333 267 600c174 160.667 380 241 618 241c136.667 0 254 -34.667 352 -104c110.667 -77.333 166 -181.666 166 -312.999c0 -160.667 -121 -327 -363 -499l-14 10c112 88.667 185.333 156.334 220 203.001c56 76 84 170 84 282
c0 126 -47.333 224.667 -142 296c-85.333 63.333 -193.333 95 -324 95c-244 0 -430.333 -73.667 -559 -221c-121.333 -140 -181 -333 -179 -579v-22c0.666992 -72 15.334 -141.333 44.001 -208c45.333 -105.333 123.333 -195.5 234 -270.5s223 -112.5 337 -112.5
c207.333 0 399.333 77 576 231c137.333 120 272.666 295 405.999 525c18.667 32 117.667 221.667 297 569c99.333 191.333 251.666 361.666 457 510.999c220 159.333 430.333 238.333 631 237c-34 -101.333 -130.333 -336 -289 -704l-124 -294
c-49.333 -114.667 -94.666 -210.667 -136 -288zM2347 522.998c0 -44 16.833 -83.168 50.5 -117.501s72.5 -52.166 116.5 -53.499c53.333 120 80 192.667 80 218c0 30 -10.333 57.5 -31 82.5s-45.667 37.5 -75 37.5c-39.333 0 -73.333 -18.333 -102 -55
c-26 -34 -39 -71.333 -39 -112z" />
    <glyph glyph-name="B" unicode="B" horiz-adv-x="2808" 
d="M2048 85c0 -65.333 24.667 -115.995 74 -151.995c42.667 -31.333 98.667 -47 168 -47c126 0 259.333 61.333 400 184c144 126 216 251.333 216 376c0 59.333 -17.333 112 -52 158c-25.333 33.333 -67.333 70.666 -126 111.999c128.667 34 226.334 72 293.001 114
c102.667 65.333 154 149.333 154 252c0 84.667 -34.333 162.667 -103 234c-60 61.333 -134 108.333 -222 141c44.667 32 78.667 54.333 102 67c40.667 22 78.667 33.667 114 35v24c-52 -0.666992 -101.333 -11 -148 -31c-16.667 -7.33301 -60.667 -31 -132 -71
c-98 25.333 -208.333 38 -331 38c-154.667 0 -302 -20.333 -442 -61c-173.333 -50 -299.333 -123.333 -378 -220c-40 -48.667 -60 -96 -60 -142c0 -64 22.333 -116.667 67 -158s99.334 -62 164.001 -62c169.333 0 322 130.333 458 391l-15 5
c-45.333 -80 -105.666 -154.667 -181 -224c-91.333 -83.333 -174 -125 -248 -125c-95.333 0 -143 47 -143 141c0 123.333 97.333 226.333 292 309c156 66 307.667 99.667 455 101l103 1c73.333 0.666992 143.333 -9 210 -29c-94.667 -81.333 -187.667 -183 -279 -305
c-54 -72 -131.333 -186 -232 -342l-192 -321c-77.333 -128 -148 -230.333 -212 -307c-332.667 -400 -633.667 -600 -903 -600c-109.333 0 -217.833 35 -325.5 105s-185.834 155 -234.501 255c-36 72.667 -54.333 149.667 -55 231v22c-2 246 58 439 180 579
c128.667 147.333 315 221 559 221c130 0 237.667 -31.667 323 -95c94.667 -71.333 142 -170 142 -296c0 -112.667 -28 -206.667 -84 -282c-34.667 -46.667 -108 -114.334 -220 -203.001l15 -10c241.333 172 362 338.333 362 499c0 131.333 -55.333 235.666 -166 312.999
c-98 69.333 -215.333 104 -352 104c-238 0 -443.667 -80.333 -617 -241c-178.667 -164.667 -268 -364.667 -268 -600c0 -190 75.667 -345.333 227 -466c140 -111.333 308 -167 504 -167c227.333 0 423.666 42 588.999 126c161.333 82 311.333 213.667 450 395
c189.333 248 333.333 466.667 432 656c95.333 180.667 161.333 302.667 198 366c78.667 134 157.667 247.667 237 341c74.667 -22.667 127.667 -49.667 159 -81c38 -38.667 57 -93.667 57 -165c0 -73.333 -21 -142 -63 -206c-40 -61.333 -93.333 -109.333 -160 -144
c-86.667 -45.333 -145.334 -68 -176 -68c-14.667 0 -36.5 3 -65.5 9s-50.833 9 -65.5 9c-48 0 -72 -14 -72 -42c0 -28.667 24 -43 72 -43c22 0 74.667 4.66699 158 14c58 -28.667 87 -83.334 87 -164.001c0 -118.667 -51.333 -248.667 -154 -390
c-109.333 -150 -220.333 -225 -333 -225c-52.667 0 -94.834 14.167 -126.5 42.5c-31.667 28.333 -47.5 67.833 -47.5 118.5c0 81.333 43.667 142.666 131 183.999l-4 12c-64 -24.667 -105.667 -50.667 -125 -78c-26 -36 -39 -76.667 -39 -122z" />
    <glyph glyph-name="C" unicode="C" horiz-adv-x="1311" 
d="M544 804c-110.667 -177.333 -166.003 -326.333 -166.003 -447c0 -106 31.667 -191.5 95 -256.5s148 -97.5 254 -97.5c132 0 270 58.333 414 175c150 122 225 247.667 225 377c0 40.667 -12.5 73.5 -37.5 98.5s-57.833 37.5 -98.5 37.5c-62 0 -127.667 -26 -197 -78
c-63.333 -47.333 -111.666 -101 -144.999 -161l-27 -7c33.333 74.667 88 143.667 164 207c82.667 68 162 102 238 102c56.667 0 104 -15 142 -45c41.333 -32.667 62 -77 62 -133c0 -144.667 -94 -286 -282 -424c-176 -128 -339.667 -192 -491 -192
c-140.667 0 -256 47.333 -346 142c-88 93.333 -132 211 -132 353c0 130 44.333 255.333 133 376c-109.333 34 -200.666 86 -273.999 156c-85.333 82 -128 174.333 -128 277c0 99.333 41 179 123 239c74.667 53.333 163.334 80 266.001 80
c163.333 0 281.333 -44.333 354 -133l-11 -6c-76 63.333 -177 95 -303 95c-92 0 -172 -32.333 -240 -97s-102 -142.334 -102 -233.001c0 -84 36 -158 108 -222c60 -53.333 135 -92.333 225 -117c130.667 178 306.667 324.667 528 440c224 116.667 445 175 663 175
c48.667 0 89 -13.667 121 -41s48 -65 48 -113c0 -107.333 -97.333 -213.666 -292 -318.999c-147.333 -79.333 -294.333 -135 -441 -167c-134 -30 -284 -43.667 -450 -41zM1541 1444c-129.333 0 -303.667 -70.999 -523 -212.999c-203.333 -133.333 -348 -259.333 -434 -378
c162.667 0 327 26 493 78c172 54.667 320.667 129.667 446 225c99.333 75.333 149 144.666 149 207.999c0 53.333 -43.667 80 -131 80z" />
    <glyph glyph-name="D" unicode="D" horiz-adv-x="3125" 
d="M3005 272c-93.333 -118 -222.329 -224.667 -386.996 -320c-180.667 -105.333 -343.334 -158 -488.001 -158c-114.667 0 -191.667 30.333 -231 91c-16 24.667 -29.667 51.667 -41 81c-132 -136.667 -260.333 -237 -385 -301c-164 -83.333 -352.667 -125 -566 -125
c-201.333 0 -372 57.667 -512 173c-146 120.667 -219 274 -219 460c0 232 87.667 430.667 263 596c173.333 163.333 380.666 245 621.999 245c142 0 262 -36.333 360 -109c105.333 -78 158 -180.667 158 -308c0 -160.667 -120.667 -327 -362 -499l-15 10
c62.667 49.333 100.667 80 114 92c42 36.667 76 71.667 102 105c58.667 76.667 88 172.667 88 288c0 124.667 -46.333 222.667 -139 294c-85.333 64.667 -194 97 -326 97c-262 0 -456.333 -84.333 -583 -253c-108 -142.667 -160 -332.334 -156 -569.001
c2.66699 -174.667 77 -320.667 223 -438c126 -102 256.667 -153 392 -153c158.667 0 307 46.333 445 139c107.333 72 228.333 188 363 348c111.333 132 257.666 330.333 438.999 595c64 96 163 237.333 297 424c118 152.667 246.333 278.334 385 377.001
c-96 30 -205 45 -327 45c-158 0 -303.667 -23.333 -437 -70c-144 -50.667 -243.333 -118.667 -298 -204c-26.667 -42 -40 -83 -40 -123c0 -86.667 53 -130 159 -130c119.333 0 271.333 110.667 455.999 332l7 -8c-177.333 -246 -341.333 -369 -492 -369
c-64 0 -117.167 18.333 -159.5 55s-64.5 85 -66.5 145c-3.33301 100.667 60.667 188.667 192 264c96.667 56 205.667 95.333 327 118s237 34 347 34c138.667 0 270 -18 394 -54c40 20.667 122.667 54 248 100l6 -6l8 -9c-113.333 -60.667 -180.666 -99 -202 -115
c26 -10.667 53.333 -24.334 82 -41.001c160.667 -94 251.334 -235.333 272 -424c0.666992 -8 1 -16.667 1 -26c0 -90 -40 -214.667 -120 -374c-66 -131.333 -132 -238.666 -198 -321.999zM2927 1432c-96 -83.333 -197 -213.666 -303 -390.999
c-266.667 -446 -492.667 -772.667 -678 -980l-57 -61c32.667 -109.333 109 -164 229 -164c47.333 0 103.666 18.667 169 56l152 99c146 92 305.667 261 479 507c190.667 270.667 278 480.667 262 630c-8.66699 79.333 -33.334 141.333 -74 186
c-32.667 35.333 -92.334 74.666 -179 117.999z" />
    <glyph glyph-name="E" unicode="E" horiz-adv-x="1562" 
d="M1279 19l-77.002 12.0039l-9 -2c-110.667 -32.667 -224.667 -49 -342 -49c-118.667 0 -221.667 22.667 -309 68c-107.333 56 -166.666 138 -177.999 246c-2 15.333 -3 30.666 -3 45.999c0 195.333 154.667 342.666 464 441.999c46.667 14.667 135 39 265 73
c-61.333 32.667 -109.666 76.667 -144.999 132c-39.333 -2.66699 -69.333 -4 -90 -4c-136 0 -259.333 24.333 -370 73c-142 62.667 -219.333 153.667 -232 273c-1.33301 10 -2 19.667 -2 29c0 96 53.333 170 160 222c85.333 41.333 184.666 62 297.999 62
c54.667 0 116.667 -12 186 -36c62 -22 108.667 -44.667 140 -68l-5 -5c-116.667 52.667 -225 79 -325 79c-98.667 0 -179.334 -22.667 -242.001 -68c-69.333 -50 -104 -120 -104 -210c0 -12 0.666992 -24.667 2 -38c18.667 -173.333 211 -261 577 -263
c-2 73.333 5.66699 131.333 23 174c18 45.333 54.333 92.333 109 141c74 66 174.333 117 301 153c111.333 30.667 226.666 46 345.999 46c236 0 360 -56.333 372 -169c12.667 -116 -116.666 -212 -387.999 -288c-156 -44 -345.333 -78 -568 -102
c-0.666992 -28.667 7.33301 -53.334 24 -74.001c18 -22.667 41 -34 69 -34c24.667 0 58.834 3.33301 102.501 10s77.834 10 102.501 10c53.333 0 86 -16.333 98 -49c10 -29.333 -4.66699 -48 -44 -56c-6.66699 -1.33301 -33.334 -2 -80.001 -2
c-14 0 -70.667 8.33301 -170 25c-18 3.33301 -33.333 5 -46 5c-129.333 0 -263.666 -56.667 -402.999 -170c-146.667 -118.667 -220 -241.334 -220 -368.001c0 -74 25 -134.833 75 -182.5s112.333 -71.5 187 -71.5h132c48.667 0 109 8 181 24
c-94 38.667 -141 107.667 -141 207c0 113.333 58.667 214.333 176 303c108.667 82 221.334 123 338.001 123c128 0 192 -55 192 -165c0 -58 -21.333 -118.667 -64 -182c-102.667 -149.333 -244.334 -251 -425.001 -305l-4 -1zM1984 1416c-6 58.667 -64.332 88 -174.999 88
c-138.667 0 -263.667 -23.667 -375 -71c-129.333 -55.333 -224.333 -137.333 -285 -246c-18 -34 -25 -84 -21 -150c463.333 43.333 739.333 138.333 828 285c21.333 36 30.666 67.333 27.999 94zM1590 393.004c14 32 21 65.667 21 101c0 95.333 -43.667 143 -131 143
c-96 0 -193.667 -40 -293 -120c-105.333 -84.667 -158 -175.334 -158 -272.001c0 -93.333 40.667 -155.666 122 -186.999c98.667 28 186.667 70.667 264 128c82.667 60.667 141 129.667 175 207z" />
    <glyph glyph-name="F" unicode="F" horiz-adv-x="2372" 
d="M2807 1317c-144 -186 -284.003 -412.669 -420.003 -680.002c40 0 80 -0.333008 120 -1c59.333 -4 88.333 -16.333 87 -37l-1 -6c-10 -13.333 -28.667 -20 -56 -20c-8.66699 0 -68.667 3.33301 -180 10l-384 -522c-139.333 -181.333 -289.666 -313 -450.999 -395
c-165.333 -84 -361.333 -126 -588 -126c-196 0 -364 55.667 -504 167c-151.333 120.667 -227 276 -227 466c0 235.333 89.333 435.333 268 600c173.333 160.667 379 241 617 241c136.667 0 254 -34.667 352 -104c110.667 -77.333 166 -181.666 166 -312.999
c0 -160.667 -120.667 -327 -362 -499l-15 10c112.667 88.667 186 156.334 220 203.001c56 75.333 84 169.333 84 282c0 126 -47.333 224.667 -142 296c-85.333 63.333 -193 95 -323 95c-244 0 -430.333 -73.667 -559 -221c-122 -140 -182 -333 -180 -579v-22
c0.666992 -81.333 19 -158.333 55 -231c48.667 -100 126.834 -185 234.501 -255s216.167 -105 325.5 -105c158.667 0 310.667 50 456 150c108 74 225.333 186.333 352 337c174.667 207.333 305.334 380.333 392.001 519c-34 3.33301 -59.667 5 -77 5
s-43.166 -0.833008 -77.499 -2.5s-60.166 -2.5 -77.499 -2.5c-19.333 0 -29 8.33301 -29 25c0 12 9.33301 20.667 28 26c30 8.66699 120.667 11.667 272 9c130 224 296.333 453.667 499 689c-101.333 11.333 -253 29.333 -455 54c-40.667 5.33301 -74 8 -100 8
c-423.333 0 -635 -90 -635 -270c0 -54 16 -97 48 -129s75 -48 129 -48c169.333 0 346.333 111 531 333l8 -6c-98.667 -121.333 -173.334 -203.666 -224.001 -246.999c-96.667 -82.667 -195.334 -124 -296.001 -124c-71.333 0 -128.333 18 -171 54
c-45.333 39.333 -68 93.666 -68 162.999c0 95.333 49 180.333 147 255c80 61.333 173.333 104.333 280 129c74 16.667 158.333 25 253 25c126 0 266.333 -14.333 421 -43c58 -12.667 146.333 -26 265 -40c148 86 271.333 129 370 129c90.667 0 136 -23.333 136 -70
c0 -108 -171.333 -168.667 -514 -182zM3205 1531c-73.333 0 -158.667 -36 -256 -108c50.667 -8.66699 94.667 -13 132 -13c34.667 0 73 6 115 18c54.667 16 82 37 82 63c0 26.667 -24.333 40 -73 40z" />
    <glyph glyph-name="G" unicode="G" horiz-adv-x="1693" 
d="M1412 871c-109.333 -12 -245.002 -14.3311 -407.002 -6.99805c-80.667 -109.333 -121 -208 -121 -296c0 -60.667 19 -114.334 57 -161.001c40.667 -49.333 91 -74 151 -74c130.667 0 324.667 103.667 582 311l255 216c70.667 60 114.334 93.333 131.001 100
c6 -4.66699 14 -12.667 24 -24c-78 -78.667 -134 -144.667 -168 -198c-39.333 -62.667 -120.666 -209.334 -243.999 -440.001c-92 -171.333 -177 -303 -255 -395c-110.667 -130 -245 -234.333 -403 -313c-113.333 -56.667 -235.666 -85 -366.999 -85
c-124.667 0 -232 32.667 -322 98c-97.333 70.667 -152.333 166 -165 286c-2 15.333 -3 30.666 -3 45.999c0 117.333 45 213.333 135 288c86.667 72 193.667 108 321 108c76.667 0 142.667 -20 198 -60c62.667 -45.333 94 -105 94 -179c0 -60 -27.333 -111.333 -82 -154
c-50 -39.333 -103.333 -59 -160 -59c-8.66699 0 -16.667 0.666992 -24 2l2 14h39c48 0 92.167 23.833 132.5 71.5s57.833 95.5 52.5 143.5c-6.66699 60.667 -37.334 106.334 -92.001 137.001c-45.333 26 -100.666 39 -165.999 39c-104 0 -193.333 -42 -268 -126
c-72 -80.667 -108 -173 -108 -277c0 -13.333 0.666992 -26.666 2 -39.999c10 -96 59 -172.667 147 -230c78.667 -51.333 168.667 -77 270 -77c263.333 0 511.333 202.667 744 608c66 115.333 120.667 205 164 269l115 164c-126.667 -98 -226.334 -166.667 -299.001 -206
c-102.667 -56.667 -197.334 -85 -284.001 -85c-101.333 0 -186.666 34.833 -255.999 104.5s-104 155.167 -104 256.5c0 91.333 27.333 178 82 260c-38 9.33301 -77.667 24 -119 44c-66.667 32 -121.334 79.667 -164.001 143s-63.334 128.666 -62.001 195.999
c1.33301 100.667 44.666 179 129.999 235c74 48.667 165.333 73 274 73c98.667 0 214.334 -32 347.001 -96l-19 -14c-108 42.667 -219 64 -333 64c-79.333 0 -146.666 -24 -201.999 -72c-58 -50 -87 -113 -87 -189c0 -9.33301 0.666992 -19 2 -29
c13.333 -128 98.333 -229.333 255 -304c114 118 212.667 205 296 261c120.667 82 254.667 147.333 402 196c156.667 52 307.334 78 452.001 78c104.667 0 182 -8 232 -24c83.333 -26 129 -77.333 137 -154c12.667 -116 -114 -220.667 -380 -314
c-188 -66 -375 -109.333 -561 -130zM2109 1432c-170 0 -359.667 -52.999 -569 -158.999c-200.667 -101.333 -362 -221 -484 -359c51.333 -4.66699 96.666 -7 135.999 -7c150.667 0 317.334 23.667 500.001 71c194 50 344.667 112.333 452 187
c97.333 67.333 143 128.666 137 183.999s-63.333 83 -172 83z" />
    <glyph glyph-name="H" unicode="H" horiz-adv-x="2765" 
d="M2626 63c0 -60.667 32 -90.9971 96 -90.9971c22 0 49.333 11.667 82 35c28.667 21.333 50.667 43 66 65l14 -11c-17.333 -26.667 -42.666 -53.667 -76 -81c-39.333 -32.667 -71.333 -49 -96 -49c-64.667 0 -114.334 30.667 -149 92c-28 50.667 -42 110.667 -42 180
c0 134 39.333 264 118 390c-34 2.66699 -87.667 4 -161 4c-62 0 -114.333 -2 -157 -6c-204 -308.667 -323 -485 -357 -529c-132 -172 -269.333 -298 -412 -378c-173.333 -96 -382.333 -144 -627 -144c-195.333 0 -363.333 55.667 -504 167
c-151.333 120.667 -227 276 -227 466c0 235.333 89.333 435.333 268 600c174 160.667 379.667 241 617 241c136 0 253.333 -34.667 352 -104c110.667 -78 166 -182.333 166 -313c0 -160.667 -120.667 -327 -362 -499l-15 10c111.333 88 184.333 155.667 219 203
c56.667 76 85 170 85 282c0 126 -47.333 224.333 -142 295c-85.333 64 -193 96 -323 96c-243.333 0 -429 -73.667 -557 -221c-121.333 -139.333 -182 -332 -182 -578c0 -162 62 -304.833 186 -428.5s267 -185.5 429 -185.5c161.333 0 314.333 49 459 147
c110 75.333 226.667 188.666 350 339.999c160 198.667 283.333 373.667 370 525c-20.667 0 -51.5 -0.333008 -92.5 -1s-71.833 -1 -92.5 -1c-17.333 0 -26 8 -26 24c0 26.667 18.333 40 55 40c10.667 0 43 0.666992 97 2c40 1.33301 72.333 1.33301 97 0l236 366
c94 138 184.333 251 271 339l-15 19l-389 -298c-170 -118.667 -315 -178 -435 -178c-83.333 0 -152.5 26.167 -207.5 78.5s-82.5 120.166 -82.5 203.499c0 117.333 58 211.333 174 282c100 60 212.333 90 337 90c51.333 0 106.5 -13.167 165.5 -39.5
s104.167 -58.5 135.5 -96.5l-11 -12c-52.667 40.667 -97.334 68 -134 82c-41.333 16 -93.333 24 -156 24c-100 0 -194 -33.333 -282 -100c-95.333 -71.333 -143 -155.666 -143 -252.999c0 -143.333 76.667 -215 230 -215c84.667 0 201 50.667 349 152l409 297
c168.667 115.333 312.334 184.666 431 207.999c4 -7.33301 6 -12 6 -14c0 -12.667 -8 -23.334 -24 -32.001c-12 -4 -29.333 -10.333 -52 -19c-46 -19.333 -99.667 -68.666 -161 -147.999c-127.333 -165.333 -275.333 -409.333 -444 -732h66l246 2
c176 262 391.667 518.333 647 769c120 118 200.667 177 242 177c21.333 0 32 -6.66699 32 -20c0 -14.667 -13 -38.334 -39 -71.001c-12 -15.333 -32.667 -38 -62 -68c-170.667 -174.667 -298.667 -323.334 -384 -446.001c-321.333 -459.333 -482 -769.666 -482 -930.999z
" />
    <glyph glyph-name="I" unicode="I" horiz-adv-x="1321" 
d="M643 -3c-121.333 0 -223 30.6689 -305 92.002c-90.667 68 -136 160.667 -136 278c0 128 53 241 159 339c103.333 96 219.666 144 348.999 144c76.667 0 143.667 -20.333 201 -61c63.333 -45.333 95 -105 95 -179c0 -70 -24.167 -129.5 -72.5 -178.5
s-107.5 -73.5 -177.5 -73.5c-41.333 0 -77.333 13.667 -108 41s-46 61.666 -46 102.999c0 60 35.667 115 107 165l12 -10c-32 -36.667 -50.333 -58.667 -55 -66c-16.667 -25.333 -25 -52.333 -25 -81c0 -33.333 11 -60.666 33 -81.999s50 -32 84 -32
c56.667 0 105.5 20.5 146.5 61.5s61.5 89.833 61.5 146.5c0 56 -20 102.833 -60 140.5s-88 56.5 -144 56.5c-116 0 -225.833 -51.333 -329.5 -154s-155.5 -211.667 -155.5 -327c0 -96 36 -170 108 -222c63.333 -45.333 145 -68 245 -68c136 0 271.667 72.667 407 218
c91.333 97.333 200 252 326 464c139.333 233.333 229.333 375.666 270 426.999c88 110 153.667 187 197 231c62.667 64.667 140.334 129.667 233.001 195l-472 -103c-235.333 -56 -397 -150.333 -485 -283c-46.667 -71.333 -70 -148 -70 -230
c0 -98.667 48.667 -148 146 -148c60 0 117.667 26.333 173 79l12 -11c-20 -24 -49.667 -46.667 -89 -68c-42 -23.333 -77.333 -35 -106 -35c-72.667 0 -129 21.667 -169 65c-38.667 41.333 -58 98.666 -58 171.999c0 139.333 59 252 177 338
c90 65.333 220.333 117.333 391 156l396 71c36 6.66699 83.667 19.667 143 39c68.667 23.333 116 38 142 44l16 -12c-20.667 -18.667 -48.334 -40.667 -83.001 -66c-55.333 -40.667 -127.333 -125.667 -216 -255c-136 -198.667 -283.333 -443 -442 -733
c-83.333 -152 -198.333 -285 -345 -399c-165.333 -126 -325.666 -189 -480.999 -189z" />
    <glyph glyph-name="J" unicode="J" horiz-adv-x="1429" 
d="M1339 417c94 -27.333 183.999 -68.668 269.999 -124.001l-10 -11c-37.333 20 -89.166 40.833 -155.499 62.5s-112.5 33.167 -138.5 34.5c-191.333 -290 -341 -492.667 -449 -608c-214.667 -229.333 -425.334 -344 -632.001 -344c-186 0 -279 92.667 -279 278
c0 67.333 28 147 84 239c102 164.667 264.667 291.334 488 380.001c182.667 72 389 113 619 123c284.667 455.333 590.667 822.333 918 1101c-156 -46 -291 -87.333 -405 -124c-266 -85.333 -461.333 -163.333 -586 -234c-236 -134 -354 -288.333 -354 -463
c0 -147.333 71.667 -221 215 -221c70 0 143.667 24 221 72l6 -8c-86.667 -56.667 -165 -85 -235 -85c-87.333 0 -159.166 28 -215.499 84s-84.5 128 -84.5 216c0 54 14.667 110 44 168c56.667 112 154 207.667 292 287c105.333 60 243.666 114.667 414.999 164l409 107
c156.667 43.333 287.667 87.666 393.001 132.999l50 -24l-129 -102c-102.667 -77.333 -219.667 -217.666 -351 -420.999c-8 -12.667 -104.333 -173.667 -289 -483c-26.667 -43.333 -63.667 -109 -111 -197zM3.99902 -374.002c0 -113.333 72 -169.999 216 -169.999
c240.667 0 458.667 174.667 654 524c52 87.333 125.333 221 220 401c-371.333 -26.667 -651.333 -130.334 -840 -311.001c-62.667 -59.333 -117.667 -127 -165 -203c-56.667 -92 -85 -172.333 -85 -241z" />
    <glyph glyph-name="K" unicode="K" horiz-adv-x="2842" 
d="M4074 1529c-17.333 4.66699 -35.998 6.99512 -55.998 6.99512c-80 0 -172.667 -34.667 -278 -104c-8.66699 -6 -89.334 -68 -242 -186c-197.333 -152.667 -437.333 -292.667 -720 -420c116 -76 174 -142.333 174 -199c0 -58 -58.833 -153.833 -176.5 -287.5
s-176.5 -234.5 -176.5 -302.5c0 -29.333 10 -53.166 30 -71.499s45.333 -27.5 76 -27.5c55.333 0 109.666 23 163 69l15 -11c-61.333 -56.667 -122 -85 -182 -85c-56 0 -103.333 23 -142 69c-36 43.333 -54 93.666 -54 150.999c0 62.667 27.333 132 82 208l153 184
c55.333 66.667 83 119.667 83 159c0 32.667 -13.833 61.834 -41.5 87.501s-57.834 38.5 -90.5 38.5c11.333 0 -65.334 -4.66699 -230.001 -14c-149.333 -256.667 -322 -501 -518 -733c-153.333 -181.333 -304.333 -311.333 -453 -390
c-165.333 -87.333 -360.666 -131 -585.999 -131c-196 0 -364 55.667 -504 167c-151.333 120.667 -227 276 -227 466c0 235.333 89.333 435.333 268 600c173.333 160.667 379 241 617 241c136.667 0 254 -34.667 352 -104c110.667 -77.333 166 -181.666 166 -312.999
c0 -160.667 -120.667 -327 -362 -499l-15 10c112 88.667 185.333 156.334 220 203.001c56 75.333 84 169.333 84 282c0 126 -47.333 224.667 -142 296c-85.333 63.333 -193 95 -323 95c-244 0 -430.333 -73.667 -559 -221c-122 -140 -182 -333 -180 -579v-22
c0.666992 -81.333 19 -158.333 55 -231c48.667 -100 126.834 -185 234.501 -255s216.167 -105 325.5 -105c159.333 0 311.666 49.667 456.999 149c110.667 75.333 227.667 188 351 338c136 164.667 265 344.667 387 540c134.667 216 308 450.667 520 704l-347 -214
c-142 -78 -269.667 -117 -383 -117c-79.333 0 -147.333 24.667 -204 74c-59.333 51.333 -89 116 -89 194c0 114.667 59 206 177 274c99.333 56.667 211 85 335 85c150.667 0 265 -55 343 -165l-15 -10c-82.667 89.333 -187.334 134 -314.001 134
c-102 0 -198.667 -32.333 -290 -97c-100 -71.333 -150 -156 -150 -254c0 -61.333 20 -109.333 60 -144c38 -33.333 88 -50 150 -50c105.333 0 234.333 43 386.999 129c16 8.66699 152.333 95.667 409 261c164.667 106 298 173.333 400 202l17 -2
c-67.333 -30.667 -123.333 -62.667 -168 -96c-72 -53.333 -155.333 -151.666 -250 -294.999c-82.667 -125.333 -146.334 -240 -191 -344c22.667 0 55.167 -2.16699 97.5 -6.5s73.166 -6.5 92.5 -6.5c64.667 0 167.667 44 309 132c108.667 68 203.667 136.667 285 206
c180 154.667 283.667 241.334 311 260.001c128.667 89.333 253 134 373 134c48 0 87.667 -14.333 119 -43z" />
    <glyph glyph-name="L" unicode="L" horiz-adv-x="1750" 
d="M1684 871c-61.333 -92.667 -157.668 -227.671 -289.001 -405.004c-27.333 -32.667 -113.666 -112 -258.999 -238l382 -207c155.333 -76.667 293 -115 413 -115c77.333 0 167 24 269 72l4 -6c-153.333 -79.333 -288.333 -119 -405 -119
c-132.667 0 -262.667 29.667 -390 89c-92 44 -232 106.667 -420 188c-171.333 -93.333 -305.666 -140 -402.999 -140c-117.333 0 -205.333 7.66699 -264 23c-107.333 28.667 -161 85.334 -161 170.001c0 72.667 39.667 130.334 119 173.001
c65.333 35.333 137.666 53 216.999 53c84.667 0 178.334 -16.333 281.001 -49c36 -11.333 125.667 -45.333 269 -102c101.333 100.667 227.666 285.334 378.999 554.001c-429.333 36.667 -644 173.667 -644 411c0 122.667 72.667 222 218 298
c121.333 63.333 249.666 95 384.999 95c128.667 0 260.334 -44.333 395.001 -133l-10 -10c-129.333 70.667 -252 106 -368 106c-134 0 -249.667 -28 -347 -84c-117.333 -67.333 -176 -163 -176 -287c0 -126 58 -218 174 -276c89.333 -44.667 204 -67 344 -67
c20.667 0 42 0.666992 64 2c26.667 30.667 59.334 73.667 98.001 129c47.333 68.667 78.666 112.667 93.999 132c108 140.667 193 243 255 307c112 116 217.333 192.667 316 230c25.333 10 49.333 15 72 15c75.333 0 113 -40.333 113 -121
c0 -97.333 -57.667 -207.666 -173 -330.999c-92.667 -100 -193.667 -181.333 -303 -244c-65.333 -38 -148.333 -75.667 -249 -113zM2307 1635c-57.333 0 -116.666 -32.3311 -177.999 -96.998c-24.667 -26 -67.667 -82.667 -129 -170
c-116.667 -164.667 -207.334 -306.334 -272.001 -425.001c121.333 59.333 235.333 133.666 342 222.999c123.333 104 210 207.333 260 310c18.667 38 28 69.333 28 94c0 43.333 -17 65 -51 65zM426.998 273.998c-140 0 -210 -38 -210 -114c0 -90.667 104.333 -136 313 -136
c64 0 133.333 12 208 36c78 25.333 140.667 57.333 188 96c-174.667 78.667 -341 118 -499 118z" />
    <glyph glyph-name="M" unicode="M" horiz-adv-x="2473" 
d="M2334 124c0 -34.667 9.33105 -63.668 27.998 -87.001c19.333 -24.667 46.333 -37 81 -37c60 0 115.333 35 166 105l12 -11c-50.667 -88 -111.667 -132 -183 -132c-64.667 0 -118.667 29.667 -162 89c-39.333 54.667 -59 115.667 -59 183c0 165.333 105.333 390 316 674
c114.667 154.667 283.667 351.667 507 591c-137.333 -90.667 -269 -199.334 -395 -326.001c-82.667 -83.333 -190.334 -204.333 -323 -363c-150 -180.667 -260.333 -309 -331 -385c-183.333 -197.333 -336.333 -334.333 -459 -411l-30 16
c81.333 111.333 149.666 229 204.999 353l151 374c94 228 226.333 448 397 660l-17 16c-94 -79.333 -249.667 -257.333 -467 -534c-229.333 -291.333 -406.666 -495 -531.999 -611c-210 -194 -402.667 -291 -578 -291c-116 0 -213.333 34.667 -292 104
c-82.667 72.667 -124 166.334 -124 281.001c0 134 55.333 249 166 345c105.333 92 226 138 362 138c78 0 144 -18.667 198 -56c61.333 -42.667 92 -101.334 92 -176.001c0 -67.333 -24.833 -127 -74.5 -179s-108.167 -78 -175.5 -78c-43.333 0 -80.666 13.333 -111.999 40
c-34 28.667 -51 64.334 -51 107.001c0 66.667 31.333 116.334 94 149.001l8 -8c-38.667 -34 -58 -78.667 -58 -134c0 -37.333 9.66699 -68.333 29 -93c21.333 -27.333 50 -41 86 -41c56 0 106.333 25 151 75c42.667 48.667 64 101.667 64 159c0 61.333 -22.333 110 -67 146
c-41.333 32.667 -93.333 49 -156 49c-111.333 0 -218.833 -55 -322.5 -165s-155.5 -221 -155.5 -333c0 -190 131 -285 393 -285c119.333 0 237 62.667 353 188l419 463l463 540c218 239.333 393 383.333 525 432l57 -12c-106 -108 -210.667 -268.333 -314 -481l-234 -533
c-20 -46.667 -70.667 -149 -152 -307c78.667 78.667 185.334 203 320.001 373c139.333 177.333 246.666 304.666 322 381.999c94 96.667 242.667 223.334 446 380.001c124.667 96 215.334 153.667 272 173l53 -17c-87.333 -89.333 -194 -216 -320 -380
c-97.333 -126.667 -214 -310.334 -350 -551.001c-161.333 -285.333 -242 -474.666 -242 -567.999z" />
    <glyph glyph-name="N" unicode="N" horiz-adv-x="2131" 
d="M3357 1578c-23.333 12 -48.002 17.666 -74.002 16.999h-11c-57.333 -6.66699 -149 -67.334 -275 -182.001c-85.333 -78.667 -167 -162.667 -245 -252c-308.667 -352 -610.667 -754.333 -906 -1207l-30 20c31.333 118.667 62.333 332.334 93 641.001
c26 259.333 83 501 171 725c-104 -108 -256 -304.333 -456 -589c-184.667 -264 -340.334 -454.667 -467.001 -572c-73.333 -68.667 -149.666 -117 -228.999 -145c-72.667 -24.667 -161.667 -37 -267 -37c-116 0 -213.333 34.667 -292 104
c-82.667 72.667 -124 166.334 -124 281.001c0 134 55.333 249 166 345c105.333 92 226 138 362 138c78 0 144 -18.667 198 -56c61.333 -42.667 92 -101.334 92 -176.001c0 -67.333 -24.833 -127 -74.5 -179s-108.167 -78 -175.5 -78c-43.333 0 -80.666 13.333 -111.999 40
c-34 28.667 -51 64.334 -51 107.001c0 66.667 31.333 116.334 94 149.001l8 -8c-38.667 -33.333 -58 -78 -58 -134c0 -37.333 9.66699 -68.333 29 -93c21.333 -27.333 50 -41 86 -41c56 0 106.333 25 151 75c42.667 48.667 64 101.667 64 159c0 61.333 -22.333 110 -67 146
c-41.333 32.667 -93.333 49 -156 49c-111.333 0 -218.833 -55 -322.5 -165s-155.5 -221 -155.5 -333c0 -190 131 -285 393 -285c124.667 0 262.334 78 413.001 234c122 127.333 266.667 296.666 434 507.999l416 523c148.667 178.667 254.334 283 317 313l37 -12
c-73.333 -94 -130.333 -249.333 -171 -466l-73 -507c-8 -52 -38.333 -179 -91 -381l333 494c178 260.667 331 461.667 459 603c177.333 195.333 319.666 293 427 293c57.333 0 107.666 -14 151 -42z" />
    <glyph glyph-name="O" unicode="O" horiz-adv-x="1477" 
d="M706 -29c-133.333 0 -241.666 37.334 -324.999 112.001c-87.333 78.667 -131 183.667 -131 315c0 196.667 93 401 279 613c164.667 187.333 348 327 550 419c68.667 31.333 126 51 172 59c15.333 1.33301 38.666 4.66602 69.999 9.99902l58 24c62 22 122 33 180 33
c99.333 0 174 -39 224 -117c42.667 -65.333 64 -150.333 64 -255c0 -162 -61 -340.333 -183 -535c-118 -188.667 -263.333 -347 -436 -475c-184.667 -135.333 -358.667 -203 -522 -203zM1522 1512c-127.333 0 -260.001 -93.333 -398.001 -280
c-130.667 -176 -196 -329 -196 -459c0 -46 9.33301 -85.667 28 -119c23.333 -40 56.333 -60 99 -60c38.667 0 76.334 11.333 113.001 34l7 -9c-38.667 -32 -80.667 -48 -126 -48c-60 0 -106.667 26 -140 78c-28.667 44.667 -43 98 -43 160c0 153.333 78.667 317.333 236 492
l-16 17c-170.667 -126 -321 -275.333 -451 -448c-160 -211.333 -240 -401.333 -240 -570c0 -110.667 31 -189.667 93 -237c54 -41.333 137.667 -62 251 -62c33.333 0 83.666 12 150.999 36c62.667 22.667 110.334 45 143.001 67c158 102 319.333 273.667 484 515
c176 258 264 471.333 264 640s-86.333 253 -259 253z" />
    <glyph glyph-name="P" unicode="P" horiz-adv-x="2529" 
d="M2640 652c-116 0 -211.669 11.332 -287.002 33.999c-134.667 -254 -264.334 -462.333 -389 -625c-138.667 -180.667 -289 -312.334 -451 -395.001c-165.333 -84 -361.333 -126 -588 -126c-196 0 -364 55.667 -504 167c-151.333 120.667 -227 276 -227 466
c0 235.333 89.333 435.333 268 600c173.333 160.667 379 241 617 241c136.667 0 254 -34.667 352 -104c110.667 -77.333 166 -181.666 166 -312.999c0 -160.667 -120.667 -327 -362 -499l-15 10c112 88.667 185.333 156.334 220 203.001c56 76 84 170 84 282
c0 126 -47.333 224.667 -142 296c-85.333 63.333 -193 95 -323 95c-244 0 -430.333 -73.667 -559 -221c-122 -140 -182 -333 -180 -579v-22c0.666992 -74.667 16.334 -146 47.001 -214c46.667 -104 124.834 -192.833 234.501 -266.5s220.834 -110.5 333.501 -110.5
c296 0 565.667 162.333 809 487c169.333 226.667 356.333 515.667 560.999 867c106 181.333 255.333 367 448 557c-99.333 23.333 -175 35 -227 35c-129.333 0 -265 -21.333 -407 -64c-167.333 -50.667 -284 -116.667 -350 -198c-44.667 -56 -67 -109.333 -67 -160
c0 -40.667 13.167 -75.334 39.5 -104.001s59.833 -43 100.5 -43c72.667 0 154.667 42.333 246 127c66.667 62 128.667 136 186 222l17 -6c-76.667 -109.333 -142.667 -190.333 -198 -243c-93.333 -90 -183.666 -135 -270.999 -135c-58.667 0 -109.167 19.833 -151.5 59.5
s-63.5 88.5 -63.5 146.5c0 90.667 62.333 174.334 187 251.001c91.333 56.667 194.666 99.667 309.999 129c126.667 32.667 263 49 409 49c82 0 175 -11.333 279 -34l118 60c46 22.667 87 39 123 49l16 -9c-52.667 -28 -86.334 -46.667 -101 -56
c-39.333 -23.333 -70 -46 -92 -68c211.333 -87.333 317 -209 317 -365c0 -119.333 -59.667 -229 -179 -329c-114 -96 -232 -144 -354 -144zM2831 1467c-82 -73.333 -168 -196.998 -258 -370.998l-202 -382c43.333 -14.667 92 -22 146 -22
c121.333 0 239.833 53.667 355.5 161s173.5 221.333 173.5 342c0 65.333 -19.833 123.166 -59.5 173.499s-91.5 83.166 -155.5 98.499z" />
    <glyph glyph-name="Q" unicode="Q" horiz-adv-x="1599" 
d="M1501 247c-48.667 -40.667 -107.999 -81.666 -177.999 -122.999c-30.667 -17.333 -100.334 -54.666 -209.001 -111.999c58 -42.667 120.333 -80.667 187 -114c194 -97.333 345 -146 453 -146c58 0 115 9.66699 171 29c-46 -61.333 -132.667 -92 -260 -92
c-201.333 0 -435.666 93.667 -702.999 281c-85.333 -5.33301 -151 -2.33301 -197 9c-101.333 24 -187 78.667 -257 164c-37.333 11.333 -70.666 17 -99.999 17c-116 0 -226.333 -31.333 -331 -94l-22 21c17.333 18.667 47.333 40 90 64s80 40 112 48
c51.333 14 122.333 20.333 213 19c-40.667 76.667 -61 152 -61 226c0 216 147 451.667 441 707c117.333 101.333 253 187.666 407 258.999c174.667 81.333 332.667 122 474 122c89.333 0 160.666 -26.667 213.999 -80c51.333 -50.667 81.666 -121.334 90.999 -212.001
c2.66699 -21.333 4 -43 4 -65c0 -164 -59.667 -338.333 -179 -523c-97.333 -152 -217.333 -287 -360 -405zM1741 1490c-96.667 0 -191.328 -39.6592 -283.995 -118.992c-78.667 -68.667 -153.667 -163 -225 -283c-80.667 -136.667 -121 -253.334 -121 -350.001
c0 -10.667 0.666992 -20.667 2 -30c3.33301 -32 14 -60.667 32 -86c20.667 -28.667 45.667 -43.334 75 -44.001c36 -1.33301 76.667 11.667 122 39l10 -15c-42.667 -38 -88.334 -57.333 -137.001 -58c-50.667 -0.666992 -92 21.666 -124 66.999
c-26.667 37.333 -43 82.666 -49 135.999c-2 17.333 -3 34.666 -3 51.999c0 88.667 26.667 179 80 271c44 76.667 117 170 219 280c-158.667 -108 -302.334 -231.833 -431.001 -371.5s-220.334 -271.834 -275.001 -396.501c-51.333 -118.667 -77 -208 -77 -268
c0 -28.667 7 -61.334 21 -98.001c91.333 -16.667 179.666 -41.334 264.999 -74.001c79.333 -29.333 146.666 -62 201.999 -98c94 31.333 167.667 67.333 221 108c152.667 116 306.667 283.667 462 503c182 256.667 265.333 460.667 250 612
c-7.33301 66.667 -32 120.5 -74 161.5s-95.667 61.5 -161 61.5zM595.007 129.009c82.667 -80.667 188.667 -124.333 318 -131c-104.667 54 -210.667 97.667 -318 131z" />
    <glyph glyph-name="R" unicode="R" horiz-adv-x="2698" 
d="M2684 756c74 -56.667 110.996 -110.331 110.996 -160.998c0 -55.333 -39.5 -144.5 -118.5 -267.5s-118.5 -202.833 -118.5 -239.5c0 -24 8.83301 -45.167 26.5 -63.5s38.5 -27.5 62.5 -27.5c43.333 0 90.333 22.333 141 67l12 -6c-60.667 -58.667 -116 -88 -166 -88
c-53.333 0 -96.333 21.667 -129 65c-28.667 40 -43 88 -43 144c0 64 37.667 150.5 113 259.5s113 183.833 113 224.5c0 36 -16.667 62.667 -50 80c-26 -2 -44.667 -3 -56 -3c-70.667 0 -126.334 4.33301 -167 13c-80 -156 -238 -392.333 -474 -709
c-140 -187.333 -286.667 -323.333 -440 -408c-164.667 -90.667 -360 -136 -586 -136c-198 0 -366.333 60.333 -505 181c-144.667 126 -217 286.333 -217 481c0 240.667 85.667 447.334 257 620.001s377 259 617 259c138.667 0 256.334 -37.333 353.001 -112
c106 -82 159 -190 159 -324c0 -168 -119.333 -342 -358 -522l-15 11c112.667 94 186 165.667 220 215c54 78 81 175.333 81 292c0 128.667 -45.333 230 -136 304c-84 69.333 -192 104 -324 104c-246 0 -432.333 -80 -559 -240c-116 -146 -173 -344.333 -171 -595l1 -24
c0 -84 18 -164.333 54 -241c47.333 -102 123 -189.333 227 -262c108 -75.333 216.667 -113 326 -113c300.667 0 567 169.667 799 509c194.667 284 356.334 534.333 485.001 751c150 253.333 340.667 484.666 572 693.999c-98.667 24.667 -190 37 -274 37
c-30 0 -63 -1.33301 -99 -4c-135.333 -8 -277 -47.667 -425 -119c-181.333 -86.667 -272 -186.667 -272 -300c0 -39.333 14 -73.5 42 -102.5s61.667 -43.5 101 -43.5c90.667 0 178.334 38.667 263.001 116c68.667 63.333 128.667 144.666 180 243.999l7 -5
c-49.333 -108 -115 -198.333 -197 -271c-94 -83.333 -191 -125 -291 -125c-51.333 0 -96.666 23.667 -135.999 71c-38 45.333 -57 94 -57 146c0 103.333 73 195.666 219 276.999c114.667 63.333 235 104.333 361 123c117.333 17.333 214.333 26 291 26
c105.333 0 216.333 -15.667 333 -47c74.667 46 158 83 250 111l8 -12c-62.667 -23.333 -129.667 -62.666 -201 -117.999c176 -80.667 264 -193.334 264 -338.001c0 -194 -154.667 -326.667 -464 -398zM2848 1457c-127.333 -148.667 -260.666 -363.333 -400 -644
c16.667 2.66699 31 4 43 4c28.667 0 60.334 -4.83301 95 -14.5c34.667 -9.66699 59.667 -14.5 75 -14.5c43.333 0 105 38.333 185 115c101.333 97.333 152 201.333 152 312c0 125.333 -50 206 -150 242z" />
    <glyph glyph-name="S" unicode="S" horiz-adv-x="1404" 
d="M1656 1209l-51.999 -423.001c-26.667 -189.333 -59.334 -321.666 -98.001 -396.999c-152.667 -294 -413 -441 -781 -441c-89.333 0 -175 24.333 -257 73l-187 -221l-56 19l197 234c-146.667 120.667 -220 275.667 -220 465c0 161.333 68 302.666 204 423.999
c132 118 279.333 177 442 177c184.667 0 312 -83.333 382 -250l308 268c10.667 64.667 30.667 160.334 60 287.001c15.333 48.667 44.333 93.667 87 135c46.667 46 93.667 69 141 69c57.333 0 86 -26.333 86 -79c0 -68 -85.333 -181.333 -256 -340zM1662 1249
c141.333 135.333 212 229.666 212 282.999c0 28.667 -12.667 43 -38 43c-43.333 0 -87 -51.333 -131 -154c-12.667 -31.333 -27 -88.666 -43 -171.999zM1242 831.999c14.667 -52 22.001 -106.001 22.001 -162.001s-7 -112.667 -21 -170l-24 2c14.667 56 22 112.667 22 170
c0 48 -5.33301 96 -16 144c-238.667 -222.667 -484.334 -480 -737.001 -772c70.667 -44.667 147 -67 229 -67c156.667 0 287 45.333 391 136c73.333 64.667 155.333 178.334 246 341.001c47.333 86 86 190 116 312c16.667 68 37 177.333 61 328zM841.002 1084
c-153.333 0 -285 -63.335 -395 -190.002c-105.333 -121.333 -158 -259.666 -158 -414.999c0 -163.333 52.333 -296.666 157 -399.999c248.667 286.667 504.667 545 768 775c-62 153.333 -186 230 -372 230z" />
    <glyph glyph-name="T" unicode="T" horiz-adv-x="2206" 
d="M2124 1312c-38 -64.667 -93.335 -123.001 -166.002 -175.001c-80 -56.667 -154 -85 -222 -85c-69.333 0 -126 19.333 -170 58c-46 40.667 -69 95.334 -69 164.001c0 128.667 71 225.667 213 291c108.667 49.333 236 74 382 74c93.333 0 232.833 -12.5 418.5 -37.5
s325.5 -37.5 419.5 -37.5c218 0 385.667 4.33301 503 13c188.667 14 353.667 41.667 495 83c-89.333 -66 -241.666 -118.333 -456.999 -157c-174 -30.667 -338 -46 -492 -46c-111.333 0 -278 10.5 -500 31.5s-389 31.5 -501 31.5c-292 0 -438 -82.667 -438 -248
c0 -121.333 64 -182 192 -182c130.667 0 261.334 74 392.001 222zM931.998 -460.001c-196 0 -364.332 55.667 -504.999 167c-151.333 120.667 -227 276 -227 466c0 235.333 89.333 435.333 268 600c174 160.667 379.667 241 617 241c137.333 0 255 -34.333 353 -103
c110 -78 165 -182.667 165 -314c0 -160.667 -120.667 -327 -362 -499l-14 10c111.333 88 184.333 155.333 219 202c56 76 84 170.333 84 283c0 126 -47.333 224.667 -142 296c-84.667 63.333 -192.334 95 -323.001 95c-244 0 -430.333 -73.667 -559 -221
c-121.333 -140 -181 -333 -179 -579v-22c0.666992 -72 15.334 -141.333 44.001 -208c45.333 -105.333 123.333 -195.5 234 -270.5s223 -112.5 337 -112.5c278 0 547.333 162.333 808 487c100.667 125.333 221.667 292 363 500l350 508c92.667 128.667 223.667 233 393 313
c-102.667 -103.333 -201.667 -229.666 -297 -378.999c-56 -88.667 -135.333 -228.334 -238 -419.001c-178.667 -332 -360.334 -577 -545.001 -735c-238.667 -204 -520 -306 -844 -306z" />
    <glyph glyph-name="U" unicode="U" horiz-adv-x="1825" 
d="M1592 68c0 -72 31.3291 -108 93.9961 -108c48 0 102.333 32.667 163 98l14 -10c-65.333 -83.333 -126.666 -125 -183.999 -125c-62 0 -110.667 26 -146 78c-30.667 46 -46 101.333 -46 166c0 56 14.333 121.667 43 197l79 188
c-187.333 -200.667 -291.666 -311.334 -312.999 -332.001c-154.667 -146.667 -276.667 -220 -366 -220c-67.333 0 -120.333 24.667 -159 74c-35.333 45.333 -53 102.333 -53 171c0 280 279.333 646.667 838 1100c25.333 20.667 67.333 59 126 115
c-103.333 -52.667 -178.666 -96.334 -225.999 -131.001l-417 -332c-180 -130.667 -338.667 -196 -476 -196c-80.667 0 -148.167 27.333 -202.5 82s-81.5 122.334 -81.5 203.001c0 121.333 58.667 216 176 284c97.333 56 210.666 84 339.999 84c51.333 0 109 -14.667 173 -44
c60.667 -28 107.334 -60 140.001 -96l-9 -2c-84 70.667 -186.667 106 -308 106c-105.333 0 -201.666 -36 -288.999 -108c-92 -76 -138 -165.667 -138 -269c0 -64 19 -114 57 -150s89.333 -54 154 -54c104.667 0 242 59.333 412 178l425 330c153.333 118 261.333 177 324 177
c12.667 0 25.334 -6.66699 38.001 -20c-14 -33.333 -52.333 -82.333 -115 -147l-139 -138c-131.333 -131.333 -265 -295.666 -401 -492.999c-170 -246.667 -255 -430 -255 -550c0 -80 31 -120 93 -120c15.333 0 31.666 2 48.999 6c86.667 20.667 269.667 185.667 549 495
l530 616c160.667 184.667 304.667 332 432 442l57 -35l-352 -432c-62 -74 -150 -188.667 -264 -344c-126.667 -200 -201 -319.667 -223 -359c-95.333 -169.333 -143 -294.333 -143 -375z" />
    <glyph glyph-name="V" unicode="V" horiz-adv-x="1993" 
d="M2502 1281c-363.333 -510.667 -633.002 -949.663 -809.002 -1317l-179 44c83.333 228.667 134.333 400 153 514c16.667 100.667 25 198.667 25 294c0 224 -44.333 403.667 -133 539c-106.667 162 -270.334 244 -491.001 246
c-138.667 1.33301 -266.667 -49.834 -384 -153.501s-184.333 -223.834 -201 -360.501c-2.66699 -23.333 -4 -47.666 -4 -72.999c0 -148.667 37.333 -282 112 -400c86 -136 198.667 -204.667 338 -206c110.667 -1.33301 201.334 43.667 272.001 135
c60 78 96.667 175.333 110 292c2 13.333 3 27 3 41c0 74.667 -14.333 144.667 -43 210l5 2c53.333 -80 80 -159.333 80 -238c0 -12.667 -0.333008 -25.334 -1 -38.001c-11.333 -118.667 -53.666 -218 -126.999 -298c-79.333 -86 -178.666 -128.333 -297.999 -127
c-164.667 1.33301 -299 59.666 -403 174.999c-100 110.667 -150 246.334 -150 407.001c0 26.667 1.33301 53.334 4 80.001c20.667 171.333 104.667 311.666 252 420.999c138.667 103.333 296.667 154.333 474 153c220 -2 392.667 -77.667 518 -227
c115.333 -138 173 -314.333 173 -529c0 -44 -2.66699 -88.333 -8 -133c-24 -202.667 -64.667 -385.334 -122 -548.001c347.333 625.333 659 1099.67 935 1423l124 -39z" />
    <glyph glyph-name="W" unicode="W" horiz-adv-x="2169" 
d="M3327 1655c-97.333 0 -277.666 -147.664 -541 -442.997c-104.667 -118 -330.334 -392 -677 -822c-238 -294.667 -375 -442 -411 -442c-16.667 0 -25 7.33301 -25 22c0 20 10.667 53 32 99l47 100c28 66 53.667 152.667 77 260l57 266c34 136.667 83.667 269 149 397
c45.333 89.333 118.333 210.666 219 363.999c-96 -83.333 -185 -177.333 -267 -282c-32.667 -42 -107.667 -146.667 -225 -314c-184 -262.667 -395.333 -514.667 -634 -756l-87 -88c-36 -34 -68.667 -59.333 -98 -76c-14.667 2.66699 -22 8.66699 -22 18
c0 8.66699 21 54.334 63 137.001c46 92 71.667 146.333 77 163c18.667 53.333 42 137.666 70 252.999c26.667 111.333 50.334 195.333 71.001 252c55.333 152.667 137 298 245 436c18 23.333 127.667 148.666 329 375.999c-106.667 -48.667 -210 -115.667 -310 -201
l-376 -332c-168.667 -132 -314 -198 -436 -198c-90 0 -164 20 -222 60c-65.333 46.667 -98 113.334 -98 200.001c0 129.333 59 236.666 177 321.999c106.667 76.667 227.667 115 363 115c51.333 0 106.333 -11 165 -33c65.333 -24 112 -54.333 140 -91l-7 -7
c-76.667 60 -172 90 -286 90c-115.333 0 -220 -37.667 -314 -113c-100.667 -80 -151 -176.333 -151 -289c0 -62.667 18 -114.334 54 -155.001c38 -42.667 88 -64 150 -64c125.333 0 277.333 71 456 213l398 347c118.667 94.667 235 163.667 349 207c10.667 4 20.667 6 30 6
c17.333 0 26 -6.33301 26 -19c0 -9.33301 -21.333 -38 -64 -86l-82 -90c-52 -65.333 -111.333 -176.666 -178 -333.999l-144 -363c-84 -210 -178.333 -407 -283 -591c93.333 103.333 198.666 238 315.999 404c206.667 291.333 357 493 451 605
c220.667 261.333 405.667 410.333 555 447c-31.333 -52.667 -75.333 -133 -132 -241c-48 -103.333 -99.667 -243 -155 -419c-69.333 -220.667 -115.666 -362.334 -138.999 -425.001c-30 -80 -79.667 -198.667 -149 -356c93.333 110 210.666 262.333 351.999 457
c171.333 236 286 391 344 465c315.333 402.667 543.333 604 684 604c62 0 104 -21.667 126 -65c-20 6.66699 -39.667 10 -59 10z" />
    <glyph glyph-name="X" unicode="X" horiz-adv-x="2134" 
d="M1933 819c-44 -214.667 -65.999 -375.335 -65.999 -482.002c0 -210.667 53.333 -316 160 -316c54.667 0 110.667 39 168 117l17 -13c-66 -92 -131.333 -138 -196 -138c-96 0 -173.667 59.333 -233 178c-48.667 98 -73 200.333 -73 307c0 19.333 1.33301 48 4 86
s4 66.667 4 86l-381 -332c-158.667 -131.333 -297.334 -222 -416.001 -272c-52 -22 -126.667 -33 -224 -33c-112.667 0 -207.667 33.667 -285 101c-80.667 70 -121 161 -121 273c0 136 63.333 249.333 190 340c114 82 242 123 384 123c76.667 0 143 -21.333 199 -64
c62 -46.667 93 -107 93 -181c0 -72 -25.333 -130.833 -76 -176.5s-112.667 -68.5 -186 -68.5c-46.667 0 -85.334 12.333 -116.001 37c-34 26.667 -51 62.334 -51 107.001c0 55.333 34 105.666 102 150.999l12 -7c-52.667 -35.333 -79 -81 -79 -137
c0 -87.333 44.333 -131 133 -131c60 0 113.167 22.5 159.5 67.5s69.5 97.833 69.5 158.5c0 66 -28.333 116.667 -85 152c-47.333 30 -106.333 45 -177 45c-112 0 -223.667 -50.333 -335 -151c-114 -103.333 -171 -210.333 -171 -321c0 -100 43.667 -175.667 131 -227
c71.333 -42.667 160.666 -64 267.999 -64c113.333 0 284 92.333 512 277l470 412l59 259c20.667 100.667 31 188 31 262c0 192 -67.333 288 -202 288c-106.667 0 -221 -36 -343 -108c-138 -81.333 -207 -171.333 -207 -270c0 -90 61 -135 183 -135
c66 0 146.333 43.333 241 130l16 -18c-35.333 -43.333 -84.333 -81.333 -147 -114c-65.333 -34.667 -125 -52 -179 -52c-63.333 0 -114.166 18.333 -152.499 55s-57.5 86.667 -57.5 150c0 118.667 72.333 218.667 217 300c124.667 70 251 105 379 105
c126.667 0 226.334 -43.667 299.001 -131c68.667 -81.333 103 -186.666 103 -315.999c0 -43.333 -8 -113.666 -24 -210.999l509 417c242 188.667 421.333 283 538 283c69.333 0 122.333 -21.333 159 -64c-19.333 2.66699 -36.666 4 -52 4
c-86.667 0 -212.667 -49.667 -378 -149c-122.667 -74 -272 -178.667 -448 -314z" />
    <glyph glyph-name="Y" unicode="Y" horiz-adv-x="1897" 
d="M686 -518c-134.667 0 -248.334 34.333 -341.001 103c-102.667 76 -154 179 -154 309c0 124.667 52.667 230.667 158 318c100 82.667 213.667 124 341 124c80.667 0 152.334 -18.667 215.001 -56c74.667 -44.667 112 -104.334 112 -179.001
c0 -60.667 -28.333 -112.334 -85 -155.001c-52.667 -40.667 -110.334 -61 -173.001 -61c-90.667 0 -148.667 41.667 -174 125l20 3c22.667 -60.667 73.667 -91 153 -91c54 0 102.333 16.333 145 49c46.667 34.667 70 78.334 70 131.001c0 60.667 -26.333 107.667 -79 141
c-45.333 28.667 -100 43 -164 43c-121.333 0 -229.666 -45.333 -324.999 -136s-143 -196 -143 -316c0 -108.667 44.667 -191 134 -247c74 -46.667 169 -70 285 -70c136 0 272 37.333 408 112c131.333 72 238.666 164.667 321.999 278c11.333 16 84.333 133 219 351l432 694
l-382 -385c-188 -173.333 -332 -260 -432 -260c-76.667 0 -139.667 29.333 -189 88c-46 54.667 -69 121.334 -69 200.001c0 178.667 125 392.667 375 642l-16 18c-140 -118 -252.667 -203 -338 -255c-144 -88 -275 -132 -393 -132c-89.333 0 -162.333 26.333 -219 79
c-58.667 54 -88 125.333 -88 214c0 124 67.333 224 202 300c114 64 238 96 372 96c48 0 103.5 -14.333 166.5 -43s111.5 -62 145.5 -100l-3 -7c-98.667 71.333 -202 107 -310 107c-112.667 0 -217.667 -36.333 -315 -109c-105.333 -79.333 -158 -173.666 -158 -282.999
c0 -62.667 18.333 -113.5 55 -152.5s86 -58.5 148 -58.5c124 0 275.667 61.667 455 185l454 343c171.333 123.333 309.333 185 414 185c6.66699 0 12.334 -1.66699 17.001 -5c-5.33301 -16.667 -42 -57.334 -110 -122.001l-131 -122c-386 -378 -579 -673.333 -579 -886
c0 -40.667 11.667 -73.5 35 -98.5s55 -37.5 95 -37.5c71.333 0 189.333 72.667 354 218c118.667 104.667 266.334 252 443.001 442l321 351l123 126c57.333 55.333 102 92.333 134 111l44 -17c-166 -174.667 -284 -322.667 -354 -444c-14.667 -26 -110.667 -208 -288 -546
c-107.333 -204 -208.333 -366 -303 -486c-128 -162.667 -282 -303 -462 -421c-208.667 -136.667 -405.334 -205 -590.001 -205z" />
    <glyph glyph-name="Z" unicode="Z" horiz-adv-x="1773" 
d="M267 76c178.667 58 323.663 87 434.996 87c72.667 0 249.667 -15.333 531 -46c23.333 -2.66699 47 -4 71 -4c118.667 0 227 20 325 60c130 53.333 195 130.333 195 231c0 60 -24.667 107 -74 141c-42.667 30 -95.334 45 -158.001 45
c-142.667 0 -259.334 -63.667 -350.001 -191l-12 6c90.667 150 214.334 225 371.001 225c71.333 0 133 -19 185 -57c57.333 -42 86 -97.333 86 -166c0 -136 -105 -245.667 -315 -329c-164.667 -64 -328.667 -96 -492 -96c-77.333 0 -193.166 6.66699 -347.499 20
s-270.166 20 -347.499 20c-57.333 0 -104.666 -7 -141.999 -21c-34 -12 -75.333 -36.333 -124 -73c-15.333 13.333 -23 22.666 -23 27.999c0 31.333 109.667 131.333 329 300c508.667 390.667 1115.33 799.334 1820 1226c-168 -36.667 -286 -55 -354 -55
c-40 0 -85 2.33301 -135 7c-134.667 12.667 -297 19 -487 19c-130.667 0 -248.667 -21.333 -354 -64c-140.667 -57.333 -211 -141 -211 -251c0 -48.667 16.167 -89.5 48.5 -122.5s72.833 -49.5 121.5 -49.5c165.333 0 308.333 74.667 429 224l15 -8
c-49.333 -64.667 -113.333 -122.667 -192 -174c-90 -58.667 -171.667 -88 -245 -88c-67.333 0 -122.166 20.167 -164.499 60.5s-63.5 93.833 -63.5 160.5c0 104 53 200 159 288c88 72.667 189.333 125 304 157c67.333 18.667 147.333 28 240 28
c76 0 188.5 -9.66699 337.5 -29s261.167 -29 336.5 -29c121.333 0 270 21.667 446 65l26 -16l-420 -287l-373 -277c-170 -126 -314.333 -228 -433 -306c-184.667 -120 -393 -248.333 -625 -385c-162.667 -96 -285.667 -187.333 -369 -274z" />
    <glyph glyph-name="bracketleft" unicode="[" horiz-adv-x="809" 
d="M1336 1370h-209l-1016 -1699h210l-28 -74h-343l1098 1845h325z" />
    <glyph glyph-name="backslash" unicode="\" horiz-adv-x="1161" 
d="M1292 -403l-759 1845h106l758 -1845h-105z" />
    <glyph glyph-name="bracketright" unicode="]" horiz-adv-x="809" 
d="M68 -403h-324l36 72h210l1013 1699h-209l29 74h343z" />
    <glyph glyph-name="asciicircum" unicode="^" 
d="M1099 817l-414 466l-301 -466h-92l354 537h73l478 -537h-98z" />
    <glyph glyph-name="underscore" unicode="_" horiz-adv-x="1180" 
d="M12 -311v81h1156v-81h-1156z" />
    <glyph glyph-name="grave" unicode="`" horiz-adv-x="457" 
d="M944 755c-100.667 46.667 -201.333 150 -302 310h177c12.667 -98 54.667 -198.333 126 -301z" />
    <glyph glyph-name="a" unicode="a" horiz-adv-x="780" 
d="M602 -11c-32.667 0 -58.833 10.668 -78.5 32.001s-29.167 48.666 -28.5 81.999v35c-86.667 -96 -156.334 -144 -209.001 -144c-49.333 0 -87.666 24.333 -114.999 73c-22.667 40.667 -34 88 -34 142c0 106.667 41.167 203.334 123.5 290.001s175.833 130 280.5 130
c62 0 111 -28.333 147 -85l37 67h119l-140 -256c-79.333 -148.667 -119 -236.334 -119 -263.001c0 -30.667 18.667 -46 56 -46c34 0 88.333 43.333 163 130c32.667 38 74.667 91.333 126 160l28 -27c-147.333 -213.333 -266 -320 -356 -320zM572.001 591.001
c-69.333 0 -147.667 -62.333 -235 -187c-83.333 -118 -125 -214.667 -125 -290c0 -20 6.33301 -38.5 19 -55.5s28.667 -25.5 48 -25.5c60.667 0 141.667 63.667 243 191c98.667 124 148 218.667 148 284c0 24 -10 43.833 -30 59.5s-42.667 23.5 -68 23.5z" />
    <glyph glyph-name="b" unicode="b" horiz-adv-x="689" 
d="M354 326c-44 -85.333 -66 -154 -66 -206c0 -26 7.16699 -48.333 21.5 -67s33.833 -28 58.5 -28c49.333 0 102 37.667 158 113c42 57.333 77 120.333 105 189c-22 89.333 -33 150 -33 182c0 81.333 27 122 81 122c50.667 0 76 -31.333 76 -94
c0 -54.667 -24 -130.667 -72 -228c22 -26.667 46.667 -40 74 -40c38.667 0 68.667 27.333 90 82l26 -23c-23.333 -64.667 -62.666 -97 -117.999 -97c-30.667 0 -62 16 -94 48c-102.667 -198 -205 -297 -307 -297c-94.667 0 -142 60.333 -142 181c0 84 27.333 185.667 82 305
l-125 -156l-27 18c127.333 152.667 240.666 315.667 339.999 489l280 514h111z" />
    <glyph glyph-name="c" unicode="c" horiz-adv-x="506" 
d="M323 -6c-60.667 0 -107.668 24 -141.001 72c-29.333 42.667 -44 95.667 -44 159c0 98.667 31.333 186.667 94 264c66.667 82.667 148 124 244 124c24 0 49.667 -12.667 77 -38c24 -22.667 43 -48.667 57 -78l-12 -11c-30.667 50.667 -66 76 -106 76
c-29.333 0 -69.666 -23.333 -120.999 -70c-44.667 -41.333 -80.834 -95 -108.501 -161s-41.5 -130.667 -41.5 -194c0 -30 8.5 -56 25.5 -78s39.833 -33 68.5 -33c98 0 216.667 103.333 356 310l15 -20c-65.333 -100 -116.666 -170 -153.999 -210
c-70 -74.667 -139.667 -112 -209 -112z" />
    <glyph glyph-name="d" unicode="d" horiz-adv-x="831" 
d="M925 680c-195.333 -375.333 -293 -573 -293 -593c0 -34 15 -51 45 -51c37.333 0 91.333 39 162 117c54.667 59.333 103 122.333 145 189l30 -26c-143.333 -218 -257.666 -327 -342.999 -327c-87.333 0 -134.333 48 -141 144c-84.667 -91.333 -159 -137 -223 -137
c-54 0 -96.667 22.667 -128 68c-27.333 40.667 -41 90 -41 148c0 114 42.667 211 128 291c83.333 78 180.666 117 291.999 117c80 0 129.333 -43.333 148 -130l450 840h111zM597 586c-81.333 0 -164 -56 -248 -168c-80 -106 -120 -202.333 -120 -289
c0 -23.333 6.66699 -44.333 20 -63c14.667 -21.333 32.667 -32 54 -32c75.333 0 155 58.667 239 176c80 111.333 120 208 120 290c0 21.333 -5.66699 40.333 -17 57c-12 19.333 -28 29 -48 29z" />
    <glyph glyph-name="e" unicode="e" horiz-adv-x="488" 
d="M600 215c-106 -148.667 -201.001 -223.002 -285.001 -223.002c-56 0 -100.333 23.333 -133 70c-29.333 42.667 -44 93.334 -44 152.001c0 102 28.667 192.333 86 271c63.333 88 144.333 132 243 132c81.333 0 122 -31.333 122 -94c0 -54 -37 -98 -111 -132
c-56.667 -25.333 -123.667 -41.333 -201 -48c-32 -80 -48 -153.333 -48 -220c0 -24.667 8.5 -45.5 25.5 -62.5s37.833 -25.5 62.5 -25.5c52.667 0 115.667 40.667 189 122c27.333 30.667 74 92.334 140 185.001l24 -23c-15.333 -24 -38.666 -58.667 -69.999 -104z
M485.999 583.998c-42 0 -82 -22.001 -120 -66.001c-32.667 -38 -57.667 -84.667 -75 -140c182 16.667 273 65.334 273 146.001c0 40 -26 60 -78 60z" />
    <glyph glyph-name="f" unicode="f" horiz-adv-x="436" 
d="M606 315c-22.667 -29.333 -56.9961 -56.002 -102.996 -80.002c-38 -19.333 -70.333 -31.333 -97 -36c-10 -160.667 -57.667 -332 -143 -514c-102.667 -222 -215.334 -325 -338.001 -309c-56 7.33301 -84 63 -84 167c0 88 14.667 165.667 44 233
c61.333 138.667 190.666 382 387.999 730c-36.667 -9.33301 -66.667 -15 -90 -17c-13.333 -0.666992 -31 -1.33398 -53 -2.00098l19 40c57.333 2.66699 106.666 10.334 147.999 23.001l127 246c50 94.667 92.667 167.334 128 218.001c72 103.333 129.667 177.333 173 222
c82 86 158.333 130.333 229 133c22 0.666992 38 -7.66602 48 -24.999s14 -42.333 12 -75c-4.66699 -70.667 -29.334 -139 -74.001 -205c-41.333 -63.333 -106.333 -142.333 -195 -237c-94 -100.667 -173 -174 -237 -220l-56 -36l-91 -179c18 -26.667 33 -76 45 -148
c90 18 149.667 50.333 179 97zM726.004 1091c-57.333 -96 -137.666 -247.333 -240.999 -454c67.333 50.667 142.666 120.667 225.999 210l152 169c26.667 29.333 52.334 71 77.001 125c26.667 57.333 40 104 40 140c0 34 -12 51 -36 51
c-48.667 0 -121.334 -80.333 -218.001 -241zM353.004 307.998c-5.33301 26 -12.332 41.333 -20.999 46l-41 -62c12.667 -22 36 -38.667 70 -50c-0.666992 13.333 -3.33398 35.333 -8.00098 66zM272.005 251.998c-9.33301 -22 -76.665 -142.333 -201.998 -361
c-96.667 -172 -146.334 -286 -149.001 -342c-0.666992 -30 3.66602 -57 12.999 -81c10.667 -29.333 26.667 -44 48 -44c9.33301 0 19 3 29 9c82.667 47.333 162.334 160.333 239.001 339c72 168 108 310 108 426c-38.667 8.66699 -67.334 26.667 -86.001 54z" />
    <glyph glyph-name="g" unicode="g" horiz-adv-x="697" 
d="M772 180c-83.333 -106 -191.667 -185.999 -325 -239.999c-66 -151.333 -146.667 -294 -242 -428c-132 -187.333 -246 -281 -342 -281c-55.333 0 -83 27 -83 81c0 102 63 220.333 189 355c115.333 125.333 225.333 206.666 330 243.999l90 176
c-79.333 -72 -136.333 -108 -171 -108c-77.333 0 -116 52.667 -116 158c0 98 38.667 203.333 116 316c83.333 122 170.333 183 261 183c53.333 0 100 -31.667 140 -95l34 67h128l-313 -622c136 61.333 262.333 181 379 359l25 -31zM509.999 590.001
c-74 0 -146.668 -68 -218.001 -204c-63.333 -122 -95 -225.667 -95 -311c0 -40 13.333 -60 40 -60c60 0 131.333 68.333 214 205c24.667 40 74.334 134.333 149.001 283c-11.333 58 -41.333 87 -90 87zM-165.002 -602.999c-12 -34 -18 -61.001 -18 -81.001
c0 -34 15.333 -51 46 -51c54.667 0 130 80 226 240c46.667 77.333 109.667 196 189 356c-125.333 -82 -216.333 -150.333 -273 -205c-80 -77.333 -136.667 -163.666 -170 -258.999z" />
    <glyph glyph-name="h" unicode="h" horiz-adv-x="839" 
d="M953 224c-119.333 -158 -218.333 -236.998 -297 -236.998c-32 0 -57.333 14.333 -76 43c-16.667 26 -25 56 -25 90c0 51.333 22.333 112.666 67 183.999l118 166c24.667 36 37 63 37 81c0 34 -21.667 51 -65 51c-50 0 -122.333 -38 -217 -114
c-63.333 -50.667 -122.333 -124.334 -177 -221.001l-128 -256h-96l272 522l-192 -221l-25 23l143 157c59.333 66 103 124.667 131 176l362 670h101l-449 -837l149 99c42 22.667 81.333 34 118 34c42.667 0 76 -14.833 100 -44.5s36 -67.167 36 -112.5
c0 -65.333 -31.667 -138.333 -95 -219s-95 -136.667 -95 -168c0 -40.667 15 -61 45 -61c30.667 0 85.667 48 165 144c56 67.333 100.333 123 133 167l30 -25z" />
    <glyph glyph-name="i" unicode="i" horiz-adv-x="422" 
d="M571 839c-51.333 0 -77 22.332 -77 66.999s23.333 67 70 67c19.333 0 37 -6.66699 53 -20s24 -29.666 24 -48.999c0 -18.667 -7 -34.167 -21 -46.5s-30.333 -18.5 -49 -18.5zM460 121.999c-74.667 -83.333 -135.334 -124.999 -182.001 -124.999
c-74 0 -111 47.333 -111 142c0 49.333 42.667 153.666 128 312.999c-58 -63.333 -97.333 -107.333 -118 -132l-26 25l227 275h130l-146 -256c-82.667 -148 -124 -236.667 -124 -266c0 -38 16.667 -57 50 -57c34.667 0 89.334 44.667 164.001 134
c27.333 34 69 89.333 125 166l30 -27c-30 -42.667 -79 -106.667 -147 -192z" />
    <glyph glyph-name="j" unicode="j" horiz-adv-x="469" 
d="M639 837c-19.333 0 -37 6.33398 -53 19.001s-24 29 -24 49c0 45.333 23.333 68 70 68c19.333 0 37 -6.66699 53 -20s24 -30 24 -50c0 -18.667 -7 -34.334 -21 -47.001s-30.333 -19 -49 -19zM539 178.001c-55.333 -72.667 -107.001 -126.667 -155.001 -162
c-59.333 -42 -129.333 -69.667 -210 -83c-71.333 -136.667 -164.333 -278.667 -279 -426c-149.333 -191.333 -265 -287 -347 -287c-35.333 0 -64.666 16.333 -87.999 49c-22 30 -33 63.667 -33 101c0 96.667 81 205.667 243 327c112 84 237.667 158.667 377 224
c15.333 22.667 66.666 119.334 153.999 290.001c18.667 37.333 67.667 130 147 278l-169 -184l-30 25l140 147c64.667 69.333 104 115.666 118 138.999h123c-99.333 -199.333 -211.666 -413 -336.999 -641c80 24 146.667 57.333 200 100c45.333 36 94 90.333 146 163l71 103
l26 -31zM-544.001 -641.999c0 -28.667 9.16699 -52.8311 27.5 -72.498s41.5 -29.5 69.5 -29.5c72.667 0 161.334 80.667 266.001 242c22.667 35.333 90.667 157.666 204 366.999c-128.667 -54 -249.334 -126.333 -362.001 -217
c-136.667 -108.667 -205 -205.334 -205 -290.001z" />
    <glyph glyph-name="k" unicode="k" horiz-adv-x="778" 
d="M862 606c-18 0 -50.667 -23.9971 -98 -71.9971c-52 -52.667 -101.333 -84.334 -148 -95.001c38 -44 57 -80 57 -108c0 -44 -14.167 -97.5 -42.5 -160.5s-42.5 -95.167 -42.5 -96.5c0 -32 11 -48 33 -48c28 0 81.667 45.667 161 137
c54.667 63.333 102.334 124 143.001 182l26 -38c-148.667 -206.667 -263 -310 -343 -310c-28 0 -50 12 -66 36c-14 22 -21 48 -21 78c0 35.333 12.833 86.666 38.5 153.999s38.5 102.333 38.5 105c0 20.667 -8 40 -24 58l-34 1c-28.667 0.666992 -63 -2.66602 -103 -9.99902
l-212 -407h-131l292 554c-41.333 -55.333 -115 -141.333 -221 -258l-24 26c171.333 189.333 297 353.666 377 492.999l267 511h131l-446 -856c12 0 33.667 2 65 6c27.333 3.33301 49 5 65 5c38 0 82.167 24.333 132.5 73s94.166 73 131.499 73
c24.667 0 49.667 -7.66699 75 -23c28.667 -16.667 43 -36.334 43 -59.001c0 -24 -13 -36 -39 -36c-12.667 0 -26 14.167 -40 42.5s-27.667 42.5 -41 42.5z" />
    <glyph glyph-name="l" unicode="l" horiz-adv-x="470" 
d="M530 698c78 64 177.333 150.667 298 260c45.333 47.333 87 105 125 173c36 64 54 109.667 54 137c0 11.333 -6.33301 17 -19 17c-44 0 -112.333 -61 -205 -183c-76.667 -102 -152 -220 -226 -354zM1035 1349c18.667 -8 28 -25.666 28 -52.999
c0 -44.667 -21 -104 -63 -178s-91.333 -139 -148 -195c-110 -108.667 -237 -221 -381 -337c-114.667 -226.667 -172 -383.667 -172 -471c0 -49.333 16.333 -74 49 -74c63.333 0 154.666 98.667 273.999 296l28 -23c-129.333 -212.667 -234 -319.334 -314 -320.001
c-94.667 -0.666992 -142 57 -142 173c0 57.333 12 125.333 36 204c-21.333 -22 -40.666 -43.667 -57.999 -65l-27 30c24 35.333 63.667 79.333 119 132c36 91.333 81 181 135 269c254 413.333 452 620 594 620c14.667 0 28.667 -2.66699 42 -8z" />
    <glyph glyph-name="m" unicode="m" horiz-adv-x="1224" 
d="M1070 -3c-35.333 0 -63.833 13.168 -85.5 39.501s-32.5 57.5 -32.5 93.5c0 63.333 16 127.333 48 192c16.667 34 46.334 80.667 89.001 140c32 44.667 48 74.667 48 90c0 29.333 -12.667 44 -38 44c-12.667 0 -34.334 -12 -65.001 -36
c-76 -60 -147.667 -145.333 -215 -256l-160 -295h-129c188.667 338.667 283 518 283 538c0 31.333 -13 47 -39 47c-16.667 0 -43.667 -16 -81 -48c-80.667 -71.333 -149.667 -155 -207 -251l-150 -286h-129c189.333 338.667 284 523.667 284 555
c0 13.333 -5.33301 20 -16 20c-39.333 0 -139.333 -91 -300 -273l-28 22c48.667 64 101.667 122.667 159 176c81.333 75.333 145.666 113 192.999 113c23.333 0 42 -10.333 56 -31c12.667 -18 19 -39.333 19 -64c0 -8.66699 -2.33301 -30.334 -7 -65.001
c92.667 106.667 165 160 217 160c72.667 0 109 -53.333 109 -160c92.667 104.667 165.334 157 218.001 157c26.667 0 48.667 -10.333 66 -31c15.333 -18.667 23 -42 23 -70c0 -59.333 -30.5 -137 -91.5 -233s-91.5 -158.333 -91.5 -187c0 -40.667 19.667 -61 59 -61
c54 0 153.667 100.333 299 301l28 -27c-44.667 -68.667 -93.667 -131.667 -147 -189c-78 -83.333 -140 -125 -186 -125z" />
    <glyph glyph-name="n" unicode="n" horiz-adv-x="905" 
d="M739 -3c-78.667 0 -118.002 51.3311 -118.002 153.998c0 66.667 31.167 147.334 93.5 242.001s93.5 146.334 93.5 155.001c0 32 -12.333 48 -37 48c-17.333 0 -43.333 -15.333 -78 -46c-79.333 -69.333 -147.666 -153.666 -204.999 -252.999l-149 -288h-134
c178.667 295.333 267.334 474.333 266.001 537v31c-64.667 -38.667 -119.334 -79.334 -164.001 -122.001c-26.667 -26 -72 -76.333 -136 -151l-23 27c162 194 274 291 336 291c39.333 0 64.333 -19 75 -57c5.33301 -19.333 7.33301 -54.333 6 -105c94 106 169 159 225 159
c26 0 46.667 -12 62 -36c12.667 -20 19 -43.667 19 -71c0 -54 -29.5 -129 -88.5 -225s-88.5 -157 -88.5 -183c0 -42.667 18.333 -64 55 -64c58.667 0 158 101 298 303l27 -30c-36 -60 -85.333 -123.333 -148 -190c-79.333 -84 -141.666 -126 -186.999 -126z" />
    <glyph glyph-name="o" unicode="o" horiz-adv-x="557" 
d="M661 265c-12 -4 -41.332 -11.668 -87.999 -23.001c-26 -64 -62 -119 -108 -165c-54 -53.333 -109.333 -80 -166 -80c-54 0 -95.667 24.667 -125 74c-24 41.333 -36 91.333 -36 150c0 91.333 31.333 179.333 94 264c68 91.333 146 137 234 137
c62 0 104.667 -20.333 128 -61c17.333 -30.667 26 -78 26 -142c0 -34 -9.66699 -80.667 -29 -140c31.333 6.66699 58.333 16.334 81 29.001c9.33301 4.66699 24.666 13.667 45.999 27l23 -24c-22 -20 -48.667 -35.333 -80 -46zM496.001 588.999
c-58 0 -119.333 -61.334 -184 -184.001c-59.333 -111.333 -89 -200.666 -89 -267.999c0 -74.667 31.333 -112 94 -112c41.333 0 85 24.667 131 74c38 40.667 69.667 88 95 142c-13.333 8 -20 17 -20 27c0 18 8.33301 27.667 25 29l15 -13c17.333 56 26 108 26 156
c0 99.333 -31 149 -93 149z" />
    <glyph glyph-name="p" unicode="p" horiz-adv-x="850" 
d="M687 -20c-45.333 0 -82.001 15.666 -110.001 46.999c-26 30 -39 68.333 -39 115s35.333 110.5 106 191.5s106 148.5 106 202.5c0 43.333 -17 65 -51 65c-36 0 -90.667 -45.333 -164 -136c-60.667 -74 -104.334 -137.333 -131.001 -190l-520 -1027h-123l756 1461
l-336 -398l-28 23l293 353c114.667 140 200.667 265.667 258 377h60l-282 -576c100.667 93.333 174.334 140 221.001 140c38 0 69.667 -16.667 95 -50c23.333 -30.667 35 -65.667 35 -105c0 -64 -17.667 -122 -53 -174c-11.333 -17.333 -43.666 -53.666 -96.999 -108.999
c-35.333 -36 -53 -67.667 -53 -95c0 -18 6.33301 -34.5 19 -49.5s28 -22.5 46 -22.5c69.333 0 176.333 105.333 321 316l28 -26c-156.667 -222 -275.667 -333 -357 -333z" />
    <glyph glyph-name="q" unicode="q" horiz-adv-x="753" 
d="M380 -437l-217.001 -344h-117l444 875l-50 -37c-68 -50.667 -131.667 -76 -191 -76c-40.667 0 -72.667 14 -96 42c-22.667 26.667 -34 61.667 -34 105c0 118.667 44.667 229.334 134 332.001c91.333 106 194 159 308 159c63.333 0 107.333 -36.333 132 -109
c19.333 22.667 35 42.667 47 60c0.666992 1.33301 9.33398 14.666 26.001 39.999l95 -2l-449 -875l21 -13l468 609l24 -28c-60 -88 -151.833 -212.5 -275.5 -373.5s-213.5 -282.5 -269.5 -364.5zM585.999 588c-70 0 -148.333 -63 -235 -189
c-82.667 -119.333 -124 -217.333 -124 -294c0 -58.667 18 -88 54 -88c79.333 0 162 61.333 248 184c81.333 116 122 216.333 122 301c0 57.333 -21.667 86 -65 86z" />
    <glyph glyph-name="r" unicode="r" horiz-adv-x="463" 
d="M325 -8c-26 0 -47.002 10.332 -63.002 30.999c-14.667 19.333 -22 42.333 -22 69c0 55.333 13 114.833 39 178.5s58.333 114.834 97 153.501c20 18 47.333 47 82 87c0 14.667 -11 28.334 -33 41.001c-20 10.667 -38.333 16 -55 16
c-1.33301 0 -3.66602 -2.5 -6.99902 -7.5s-5.66602 -7.5 -6.99902 -7.5c-58 -87.333 -118.333 -169.333 -181 -246l-32 30c44.667 54 107.667 137 189 249c-7.33301 14 -11 27 -11 39c0 46.667 20 70 60 70c37.333 0 56 -23.333 56 -70c0 -13.333 -4.66699 -29.333 -14 -48
c65.333 -44.667 98 -85.334 98 -122.001c0 -22 -17.667 -51.333 -53 -88c-52 -54 -85 -90.667 -99 -110c-35.333 -51.333 -53.333 -106 -54 -164c10.667 -32.667 25.334 -49 44.001 -49c30.667 0 118 98.667 262 296l21 -28c-138.667 -213.333 -244.334 -320 -317.001 -320z
" />
    <glyph glyph-name="s" unicode="s" horiz-adv-x="622" 
d="M349 0c-83.333 0 -148.667 33.334 -196 100.001c-36 -31.333 -70 -57.666 -102 -78.999l-16 19l105 92c-12 30.667 -18 61 -18 91c0 49.333 18.333 91.666 55 126.999c34.667 33.333 77.667 53.666 129 60.999l4 -19c-56.667 -23.333 -92 -40.666 -106 -51.999
c-31.333 -24.667 -47 -61 -47 -109c0 -16.667 4 -42.334 12 -77.001c48 45.333 112.333 112.333 193 201c92.667 102 147.667 169 165 201l47 143c23.333 68 50 102 80 102c30.667 0 46 -14.333 46 -43c0 -47.333 -40 -117.333 -120 -210c36 -68 54 -127.667 54 -179
c0 -67.333 -15 -135.333 -45 -204c37.333 26 96 84 176 174l25 -23c-90.667 -104.667 -155.667 -173.667 -195 -207c-85.333 -72.667 -167.333 -109 -246 -109zM182.999 120.001c38.667 -55.333 83.3311 -82.999 133.998 -82.999c60 0 116.333 57.667 169 173
c36.667 80 56.334 187.667 59.001 323c-83.333 -106.667 -140.666 -178.334 -171.999 -215.001c-66.667 -79.333 -130 -145.333 -190 -198z" />
    <glyph glyph-name="t" unicode="t" horiz-adv-x="442" 
d="M613 802h123.003l4 -39h-149l-186 -339c-94.667 -178 -142 -282.667 -142 -314c0 -46 18.333 -69 55 -69c26.667 0 78.667 47 156 141c33.333 40.667 74.666 94.334 123.999 161.001l28 -28c-48 -69.333 -100 -134.333 -156 -195
c-76.667 -82 -133.334 -123 -170.001 -123c-68.667 0 -103 50.667 -103 152c0 89.333 42.333 206 127 350l-71 -86c-26 -32.667 -54.333 -66.334 -85 -101.001l-26 21c0.666992 0.666992 55.667 67 165 199c67.333 80.667 120.666 157.667 159.999 231h-112l-4 39h131
l181 328h123z" />
    <glyph glyph-name="u" unicode="u" horiz-adv-x="858" 
d="M699 -5c-36 0 -65.335 15.667 -88.002 47c-20.667 29.333 -31 62.333 -31 99c0 3.33301 1 18 3 44c-54.667 -61.333 -94.667 -102.333 -120 -123c-54 -45.333 -104.667 -68 -152 -68c-94 0 -141 51.333 -141 154c0 49.333 15 104.333 45 165l50 100l-90 -107l-23 27
l114 134c43.333 52 78.333 99.667 105 143h122l-140 -243c-76.667 -137.333 -115 -223.333 -115 -258c0 -21.333 7.5 -39 22.5 -53s33.167 -21 54.5 -21c80.667 0 176.667 80.333 288 241c32.667 48 99.334 159.333 200.001 334h118l-141 -260
c-82 -153.333 -123 -240.333 -123 -261c0 -33.333 15.667 -50 47 -50c40.667 0 96.334 38.333 167.001 115c52 56 100.667 118.667 146 188l26 -24c-139.333 -215.333 -254 -323 -344 -323z" />
    <glyph glyph-name="v" unicode="v" horiz-adv-x="784" 
d="M854 262c-28.667 0 -58.335 13.998 -89.002 41.998c-42 -71.333 -94.333 -138 -157 -200c-75.333 -73.333 -139.333 -110 -192 -110c-81.333 0 -122 53 -122 159c0 119.333 52.667 240.333 158 363c2.66699 15.333 4 25 4 29c0 2 -1.33301 7.66699 -4 17l-14 6
c-40.667 -20 -127 -106.667 -259 -260l-28 25l138 161c74.667 80 126.334 120 155.001 120c44.667 0 67 -35.667 67 -107c0 -50 -15 -105 -45 -165l-82 -152c-16 -35.333 -24 -65.666 -24 -90.999c0 -49.333 19.667 -74 59 -74c45.333 0 104 38.667 176 116
c58.667 63.333 105.334 126.333 140.001 189c-36 46 -54 101 -54 165c0 75.333 26.667 113 80 113c22.667 0 41.667 -10.667 57 -32c13.333 -19.333 20 -41 20 -65c0 -25.333 -5.33301 -53.666 -16 -84.999l-38 -91c22 -27.333 44 -41 66 -41c28.667 0 53.667 14 75 42
l28 -25c-29.333 -32.667 -62.333 -49 -99 -49z" />
    <glyph glyph-name="w" unicode="w" horiz-adv-x="1243" 
d="M1278 212c-44 0 -80.001 27 -108.001 81c-72 -97.333 -130.667 -165.333 -176 -204c-72 -62 -146.667 -93 -224 -93c-91.333 0 -137 44 -137 132c0 18 3.66699 49.333 11 94c-128 -152 -230.667 -228 -308 -228c-54 0 -91 17 -111 51c-14.667 26 -22 67.333 -22 124
c0 60 39.667 156 119 288l-147 -145l-30 22l263 276h130l-141 -234c-74 -130.667 -111 -217 -111 -259c0 -56 26 -84 78 -84c39.333 0 87 29.667 143 89c80.667 87.333 145 164.333 193 231c36 50.667 90.333 136.334 163 257.001h122l-137 -236
c-74 -134.667 -111 -220.334 -111 -257.001c0 -54.667 23.333 -82 70 -82c52 0 117.333 37.333 196 112c62 59.333 114.333 122.333 157 189c-10.667 38.667 -16 87.334 -16 146.001c0 94.667 27 142 81 142c44 0 66 -19.333 66 -58
c0 -72.667 -31.667 -153.334 -95 -242.001c24.667 -45.333 58.667 -68 102 -68c48.667 0 83.667 29.333 105 88l29 -26c-39.333 -70.667 -90.666 -106 -153.999 -106z" />
    <glyph glyph-name="x" unicode="x" horiz-adv-x="775" 
d="M888 204c-109.333 -144.667 -209 -216.998 -299 -216.998c-66 0 -105.333 49 -118 147c-77.333 -90.667 -156 -136 -236 -136c-63.333 0 -107.333 30.333 -132 91l46 7c11.333 -44 36 -66 74 -66c60.667 0 136 71 226 213c86 135.333 129 236.333 129 303
c0 40 -15.667 60 -47 60c-35.333 0 -94.666 -38.667 -177.999 -116c-62.667 -57.333 -121.334 -119 -176.001 -185l-18 31c166 198 288.667 297 368 297c44.667 0 73 -14.333 85 -43c6 -14.667 8.33301 -47.334 7 -98.001c46 45.333 79.333 75.333 100 90
c42 30 83.667 45 125 45c50.667 0 85 -28 103 -84l-29 -26c-10.667 54 -38.667 81 -84 81c-56 0 -122 -66.667 -198 -200c-71.333 -124.667 -107 -219.334 -107 -284.001c0 -57.333 21.333 -86 64 -86c62 0 130 41.333 204 124c36 40 82.333 101.333 139 184l23 -34z" />
    <glyph glyph-name="y" unicode="y" horiz-adv-x="944" 
d="M704 -67c-274.667 -472.667 -479.336 -708.999 -614.003 -708.999c-32 0 -57 15.333 -75 46c-14 25.333 -21 55.333 -21 90c0 111.333 67.667 225 203 341c111.333 94 231 164 359 210l103 196c-102 -84 -177.667 -126 -227 -126c-37.333 0 -67.666 13.667 -90.999 41
c-22 26 -33 58 -33 96c0 65.333 16.667 132 50 200c20 42 50.333 91 91 147c33.333 45.333 50 72 50 80c0 25.333 -10 38 -30 38c-33.333 0 -130.333 -94.333 -291 -283l-28 26c152 191.333 266.667 287 344 287c24 0 43.667 -9.33301 59 -28s23 -40.334 23 -65.001
c0 -50 -32.167 -126.833 -96.5 -230.5s-96.5 -172.167 -96.5 -205.5c0 -18 5.83301 -34.5 17.5 -49.5s26.167 -22.5 43.5 -22.5c34.667 0 90.334 35.333 167.001 106c69.333 64 115 116 137 156l186 334h116l-326 -625c74 29.333 143 79.333 207 150
c14.667 16.667 67 85 157 205l28 -28c-123.333 -202 -260.666 -327.667 -411.999 -377zM21.998 -648.999c0 -20.667 4 -40.333 12 -59c10.667 -24 25.334 -36 44.001 -36c99.333 0 252.666 202.333 459.999 607c-126 -55.333 -235.333 -122 -328 -200
c-125.333 -105.333 -188 -209.333 -188 -312z" />
    <glyph glyph-name="z" unicode="z" horiz-adv-x="773" 
d="M563 -8c-28 0 -52.001 6.66797 -72.001 20.001c-23.333 16 -35 37.667 -35 65c0 15.333 9.66699 40 29 74c-8.66699 8 -14.334 12 -17.001 12c-94 0 -161 -13.333 -201 -40c-52.667 -84.667 -98 -127 -136 -127c-18.667 0 -28 7.66699 -28 23c0 28 16.667 59.667 50 95
c32 32.667 62.333 53.334 91 62.001c115.333 129.333 208 239.333 278 330c-69.333 4 -129.666 20 -180.999 48c-36.667 -56.667 -95 -139.334 -175 -248.001l-32 28c49.333 64.667 105 144 167 238c-25.333 14 -38 34.667 -38 62c0 34 14 51 42 51
c48.667 0 70.667 -34.333 66 -103c50.667 -26 101 -39 151 -39c2.66699 0 11.334 0.666992 26.001 2l116 97c54 41.333 97 62 129 62c26.667 0 40 -13.667 40 -41c0 -42 -34.333 -80 -103 -114c-50 -24.667 -102.333 -41.334 -157 -50.001l-264 -310
c64.667 15.333 120.334 23 167.001 23c36 0 59.667 -14.333 71 -43c3.33301 -8 7.66602 -36.667 12.999 -86c4.66699 -38 20 -57 46 -57c34 0 90 44 168 132c54 60.667 102.667 122.667 146 186l30 -29c-153.333 -215.333 -282.333 -323 -387 -323z" />
    <glyph glyph-name="braceleft" unicode="{" horiz-adv-x="809" 
d="M1286 1358c-97.333 0.666992 -159 -10.665 -185 -33.998c-8.66699 -8 -40.667 -58.667 -96 -152l-213 -360c-18.667 -31.333 -48 -77.333 -88 -138c-38 -48.667 -83.333 -82.334 -136 -101.001c10.667 -22 16 -39.667 16 -53c0 -62 -65.333 -194.333 -196 -397l-136 -218
c-42 -74.667 -63 -129.334 -63 -164.001s25 -55 75 -61c18 -2 44 -2.66699 78 -2l-51 -81h-22c-130.667 0 -196 42 -196 126c0 66 66.667 204.333 200 415l140 224c43.333 74.667 65 126.334 65 155.001c0 19.333 -18.667 39.333 -56 60l-6 3l33 48
c57.333 1.33301 105.333 22.666 144 63.999c16.667 18 46 62.667 88 134l153 269c100.667 172 165 269.667 193 293c44.667 37.333 147.667 55.333 309 54z" />
    <glyph glyph-name="bar" unicode="|" horiz-adv-x="545" 
d="M351 -339h-136v2006h136v-2006z" />
    <glyph glyph-name="braceright" unicode="}" horiz-adv-x="809" 
d="M889 966l-114.004 -181.999c-35.333 -61.333 -53 -104.333 -53 -129c0 -23.333 17.333 -44.333 52 -63l9 -4l-31 -50c-57.333 -1.33301 -105.666 -23 -144.999 -65c-17.333 -18.667 -46.666 -63.334 -87.999 -134.001c-30 -56 -93 -167 -189 -333
c-128 -216 -213.667 -338.333 -257 -367s-128.666 -42.667 -255.999 -42h-56l47 74c96.667 0 161 11 193 33c24.667 16.667 64 71 118 163l287 488c18.667 32 48.334 78.333 89.001 139c38.667 48 84 81.333 136 100c-9.33301 21.333 -14 40.333 -14 57
c0 53.333 53 163.666 159 330.999c108 170.667 162 279.667 162 327c0 32.667 -25.333 52 -76 58c-18 2.66699 -43.667 3.33398 -77 2.00098l46 73h26c129.333 0 194 -44.667 194 -134c0 -55.333 -54 -169.333 -162 -342z" />
    <glyph glyph-name="asciitilde" unicode="~" horiz-adv-x="1366" 
d="M1386 1248c-58.667 0 -140.496 22.667 -245.496 68s-184.5 68 -238.5 68c-70 0 -134.333 -47.667 -193 -143l-65 28c69.333 112 154.666 168 255.999 168c59.333 0 141.166 -22.5 245.499 -67.5s182.166 -67.5 233.499 -67.5c71.333 0 136.666 47.333 195.999 142l65 -29
c-69.333 -111.333 -154 -167 -254 -167z" />
    <glyph glyph-name="c143" horiz-adv-x="1773" 
d="M267 76c178.667 58 323.663 87 434.996 87c72.667 0 249.667 -15.333 531 -46c23.333 -2.66699 47 -4 71 -4c118.667 0 227 20 325 60c130 53.333 195 130.333 195 231c0 60 -24.667 107 -74 141c-42.667 30 -95.334 45 -158.001 45
c-142.667 0 -259.334 -63.667 -350.001 -191l-12 6c90.667 150 214.334 225 371.001 225c71.333 0 133 -19 185 -57c57.333 -42 86 -97.333 86 -166c0 -136 -105 -245.667 -315 -329c-164.667 -64 -328.667 -96 -492 -96c-77.333 0 -193.166 6.66699 -347.499 20
s-270.166 20 -347.499 20c-57.333 0 -104.666 -7 -141.999 -21c-34 -12 -75.333 -36.333 -124 -73c-15.333 13.333 -23 22.666 -23 27.999c0 31.333 109.667 131.333 329 300c508.667 390.667 1115.33 799.334 1820 1226c-168 -36.667 -286 -55 -354 -55
c-40 0 -85 2.33301 -135 7c-134.667 12.667 -297 19 -487 19c-130.667 0 -248.667 -21.333 -354 -64c-140.667 -57.333 -211 -141 -211 -251c0 -48.667 16.167 -89.5 48.5 -122.5s72.833 -49.5 121.5 -49.5c165.333 0 308.333 74.667 429 224l15 -8
c-49.333 -64.667 -113.333 -122.667 -192 -174c-90 -58.667 -171.667 -88 -245 -88c-67.333 0 -122.166 20.167 -164.499 60.5s-63.5 93.833 -63.5 160.5c0 104 53 200 159 288c88 72.667 189.333 125 304 157c67.333 18.667 147.333 28 240 28
c76 0 188.5 -9.66699 337.5 -29s261.167 -29 336.5 -29c121.333 0 270 21.667 446 65l26 -16l-420 -287l-373 -277c-170 -126 -314.333 -228 -433 -306c-184.667 -120 -393 -248.333 -625 -385c-162.667 -96 -285.667 -187.333 -369 -274zM1778 1612
c100.667 46.667 201.333 150 302 310h-177c-12.667 -98 -54.667 -198.333 -126 -301z" />
    <glyph glyph-name="nonbreakingspace" unicode="&#xa0;" horiz-adv-x="512" 
 />
    <glyph glyph-name="exclamdown" unicode="&#xa1;" horiz-adv-x="682" 
d="M313 660l29.999 3c-7.33301 -32 -46.666 -142 -117.999 -330l-145 -385c-65.333 -152 -138 -265 -218 -339c-42.667 -38.667 -73 -58 -91 -58c-33.333 0 -50 20 -50 60c0 15.333 2.33301 32 7 50c26.667 103.333 75.667 214 147 332c31.333 51.333 99 152 203 302
l129 176c50 70.667 85.333 133.667 106 189zM373.999 957c70.667 0 106 -34 106 -102c0 -28 -8.83301 -52 -26.5 -72s-40.5 -30 -68.5 -30c-30 0 -56.333 11.667 -79 35s-34 50 -34 80c0 25.333 10.667 47 32 65c20.667 16 44 24 70 24z" />
    <glyph glyph-name="cent" unicode="&#xa2;" horiz-adv-x="948" 
d="M430 291l162.001 675c-80.667 -2 -152.334 -63 -215.001 -183c-53.333 -103.333 -80 -200.333 -80 -291c0 -110.667 44.333 -177.667 133 -201zM418.001 -3l-63.999 -21.001l64 264c-79.333 12 -140.5 44 -183.5 96s-64.5 118.333 -64.5 199
c0 119.333 42 227.333 126 324c87.333 100 190 151.667 308 155l55 227l64 27l-61 -256c78 -13.333 132.333 -36.666 163 -69.999v-14l-28 -37h-11c-43.333 44.667 -88.333 69 -135 73l-161 -675c91.333 4 178.666 62 261.999 174h12l43 -47v-10
c-76.667 -98.667 -186.667 -153.667 -330 -165z" />
    <glyph glyph-name="sterling" unicode="&#xa3;" horiz-adv-x="1784" 
d="M1947 984c-65.333 -37.333 -148.336 -75.0029 -249.003 -113.003l-117 -172c158 28.667 387.667 74.334 689 137.001l-71 -90c-136 -33.333 -356.667 -70 -662 -110c-46 -66 -88.667 -122.667 -128 -170c-29.333 -36 -68.333 -75 -117 -117l-142 -121
c56 -27.333 115.667 -60 179 -98c58.667 -36 99.667 -59.333 123 -70c113.333 -52 193 -86.333 239 -103c93.333 -34 178 -51 254 -51c78 0 167.667 24 269 72l4 -6c-153.333 -79.333 -288.666 -119 -405.999 -119c-133.333 0 -263 29.667 -389 89
c-90.667 43.333 -230.667 106 -420 188c-172 -93.333 -306.333 -140 -403 -140c-114 0 -200.333 7.33301 -259 22c-102 26 -157 76.333 -165 151c-0.666992 6.66699 -1 13.334 -1 20.001c0 72 39 129.333 117 172c66 36 139 54 219 54c85.333 0 179.333 -16.333 282 -49
c32.667 -10.667 122 -44.667 268 -102c86 85.333 174 202.666 264 351.999c-70 -8 -129.667 -14 -179 -18c-223.333 -20.667 -448.333 -29.667 -675 -27l32 92c86.667 1.33301 192.334 21.666 317.001 60.999c117.333 37.333 230 84.333 338 141
c-224 70 -344.333 180.667 -361 332c-0.666992 10.667 -1 21.334 -1 32.001c0 120.667 71.333 219.334 214 296.001c120.667 64.667 250.334 97 389.001 97c132.667 0 272.334 -46.333 419.001 -139c-147.333 -203.333 -332 -403.666 -554 -600.999
c79.333 -10 149.666 -13 210.999 -9c28 32 61.333 75.667 100 131c20 30 50.667 73.333 92 130c114 146.667 199 249 255 307c108 112.667 213.333 189.334 316 230.001c24 10 48 15 72 15c67.333 0 104.333 -32.333 111 -97c1.33301 -8 2 -16 2 -24
c0 -98.667 -59 -210.334 -177 -335.001c-93.333 -99.333 -193 -179.333 -299 -240zM2321 1635c-57.333 0 -116.332 -32.333 -176.999 -97c-24.667 -25.333 -68 -82 -130 -170c-114.667 -161.333 -205.334 -303 -272.001 -425c128.667 62.667 247.334 141 356.001 235
c116 100.667 198 200 246 298c21.333 42.667 30.666 77.667 27.999 105c-4 36 -21 54 -51 54zM1416 1579c-138 0 -255.332 -29 -351.999 -87c-114 -67.333 -171 -162 -171 -284c0 -14 0.666992 -28.333 2 -43c15.333 -143.333 118.666 -236 309.999 -278
c5.33301 4 13 9 23 15c163.333 116 342 310.333 536 583c-121.333 62.667 -237.333 94 -348 94zM1224 842.997c-90 -66.667 -224.667 -135.332 -404 -205.999c125.333 2.66699 304.333 11.667 537 27l83 148c-80.667 7.33301 -152.667 17.666 -216 30.999zM440.999 273.999
c-148.667 0 -218.333 -42.333 -209 -127c8.66699 -82 112.667 -123 312 -123c60.667 0 127.667 11.333 201 34c80.667 25.333 145.667 58 195 98c-174.667 78.667 -341 118 -499 118z" />
    <glyph glyph-name="currency" unicode="&#xa4;" horiz-adv-x="1241" 
d="M623 1208c-89.333 0 -165.333 -31.167 -228 -93.5s-94 -138.166 -94 -227.499c0 -90 31.167 -166.5 93.5 -229.5s138.5 -94.5 228.5 -94.5c89.333 0 165.5 31.667 228.5 95s94.5 139.666 94.5 228.999c0 90 -31.333 166 -94 228s-139 93 -229 93zM156 1415l204 -207
c76.667 61.333 163.667 92 261 92c100 0 187.333 -30.667 262 -92l204 207l66 -65l-207 -205c60 -78.667 90 -165.334 90 -260.001c0 -93.333 -30 -179.333 -90 -258l207 -207l-66 -66l-204 207c-76 -60 -163.333 -90 -262 -90c-96 0 -183 30 -261 90l-204 -207l-66 66
l207 207c-60 78.667 -90 164.667 -90 258c0 94.667 30 181.334 90 260.001l-207 205z" />
    <glyph glyph-name="yen" unicode="&#xa5;" horiz-adv-x="2591" 
d="M2424 -344c-41.333 -72.667 -96.6699 -108.998 -166.003 -108.998c-40.667 0 -76.667 12.667 -108 38s-48 55.666 -50 90.999c-3.33301 71.333 51.667 153.333 165 246l106 81c60.667 148 106.667 255.667 138 323c-54 3.33301 -100 19.666 -138 48.999
c-49.333 38 -74 91.333 -74 160c0 52.667 17.5 96.334 52.5 131.001s78.833 52 131.5 52c72 0 114.667 -47.333 128 -142l464 1028c-256.667 -42 -466 -170 -628 -384c-65.333 -85.333 -131.333 -192.666 -198 -321.999l-167 -340l-127 -254c-50 -94 -99 -175.333 -147 -244
c-243.333 -346.667 -589.333 -520 -1038 -520c-201.333 0 -372 57.667 -512 173c-146 120.667 -219 274 -219 460c0 232 87.333 430.667 262 596c174 163.333 381.667 245 623 245c142 0 262 -36.333 360 -109c105.333 -78 158 -180.667 158 -308
c0 -160.667 -121 -327 -363 -499l-14 10c62 49.333 100 80 114 92c42 36.667 76 71.667 102 105c58.667 76.667 88 172.667 88 288c0 124.667 -46.333 222.667 -139 294c-85.333 64.667 -194.333 97 -327 97c-261.333 0 -455.666 -84.333 -582.999 -253
c-107.333 -142.667 -159 -332.334 -155 -569.001c2.66699 -174.667 77 -320.667 223 -438c126 -102 256.667 -153 392 -153c234.667 0 452.334 101.667 653.001 305c138.667 140.667 279.334 345.334 422.001 614.001l204 406c84.667 166.667 222.334 325.667 413 477
c230.667 182.667 455.667 273 675 271c-31.333 -94.667 -123.666 -320.334 -277 -677.001c-148.667 -345.333 -239.334 -548.333 -272 -609c90 10.667 189.667 64.667 299 162l14 -15c-68 -79.333 -153.333 -135 -256 -167c-3.33301 -1.33301 -27 -8.33301 -71 -21
l-124 -305c-19.333 2 -38 -2 -56 -12c-23.333 -12.667 -58 -38.334 -104 -77.001c-48.667 -40 -80 -70 -94 -90c-31.333 -44 -44.333 -91.333 -39 -142c8 -75.333 44 -113 108 -113c55.333 0 105.666 26 151 78zM2347 536.002c-4 -43.333 10 -84.001 42 -122.001
c34 -40 75.667 -60.667 125 -62l62 142c15.333 40.667 20.666 71.334 16 92.001c-14 69.333 -48.667 104 -104 104c-38 0 -70.667 -16.667 -98 -50c-24.667 -30 -39 -64.667 -43 -104z" />
    <glyph glyph-name="brokenbar" unicode="&#xa6;" 
d="M459 408h108v-757h-108v757zM459 1432h108v-758h-108v758z" />
    <glyph glyph-name="section" unicode="&#xa7;" horiz-adv-x="1067" 
d="M582 268c74.667 0 139.333 20.333 194 61c61.333 44.667 92 103 92 175c0 92 -77 194.333 -231 307c-78.667 -8 -142.667 -29.333 -192 -64c-60.667 -42.667 -91 -100 -91 -172c0 -86 76 -188.333 228 -307zM624.999 229c107.333 -96.667 161.002 -191 161.002 -283
c0 -106.667 -47.333 -187.667 -142 -243c-77.333 -44.667 -173.333 -67 -288 -67c-80.667 0 -154 13.667 -220 41c-88 36.667 -132 89.334 -132 158.001s44.667 118.667 134 150c61.333 20.667 134.666 31 219.999 31c22 0 42.667 -1.33301 62 -4l6 -4l2 -19l-6 -8
c-213.333 0 -320 -52 -320 -156c0 -52 29.333 -91 88 -117c44.667 -19.333 96.667 -29 156 -29c83.333 0 156 18.333 218 55c74.667 44 112 105 112 183c0 66.667 -36.667 138.667 -110 216l-206 195c-73.333 78.667 -110 153.667 -110 225
c0 87.333 38.333 157.666 115 210.999c62 42.667 141 70.667 237 84c-99.333 94 -149 191.667 -149 293c0 99.333 45.333 177 136 233c76.667 48 167.667 72 273 72c71.333 0 131.666 -12.333 180.999 -37c64 -31.333 96 -79 96 -143c0 -124.667 -113.333 -187 -340 -187
c-36 0 -67.333 1.33301 -94 4l-7 9v18l7 8c24 -2.66699 43.667 -4 59 -4c67.333 0 124 10.333 170 31c62.667 27.333 94 70.333 94 129c0 86 -62 129 -186 129c-75.333 0 -139.333 -20.667 -192 -62c-58 -44.667 -87 -103.334 -87 -176.001c0 -70 36 -144.333 108 -223
l200 -198c72 -78 108 -151.333 108 -220c0 -89.333 -38 -160.666 -114 -213.999c-63.333 -44 -143.333 -71 -240 -81z" />
    <glyph glyph-name="dieresis" unicode="&#xa8;" 
d="M395 901c0 22.667 9.16699 42 27.5 58s40.5 24 66.5 24s48.333 -8 67 -24s28 -35.333 28 -58s-9.33301 -42 -28 -58s-41 -24 -67 -24s-48.167 8 -66.5 24s-27.5 35.333 -27.5 58zM730 896c0 22.667 9.16699 42 27.5 58s40.833 24 67.5 24c26 0 48.167 -8 66.5 -24
s27.5 -35.333 27.5 -58s-9.16699 -42 -27.5 -58s-40.5 -24 -66.5 -24c-26.667 0 -49.167 8 -67.5 24s-27.5 35.333 -27.5 58z" />
    <glyph glyph-name="copyright" unicode="&#xa9;" horiz-adv-x="1683" 
d="M1120 1093l30.999 1.00098v-310h-37c-43.333 183.333 -137.666 275 -282.999 275c-168.667 0 -253 -125 -253 -375c0 -255.333 90.667 -383 272 -383c115.333 0 210.333 58 285 174l32 -22c-76 -138 -190 -207 -342 -207c-112 0 -206.667 42 -284 126
c-75.333 81.333 -113 178.666 -113 291.999c0 118.667 36 220 108 304c76 88 172.333 132 289 132c38 0 85.333 -11.333 142 -34s86 -34 88 -34c38 0 59.667 20.333 65 61zM843.999 1300c-170 0 -315.334 -61.165 -436.001 -183.498s-181 -268.5 -181 -438.5
c0 -168.667 60.333 -314.334 181 -437.001s265.334 -184 434.001 -184c169.333 0 314.333 61.167 435 183.5s181 268.166 181 437.499c0 170.667 -59.833 317 -179.5 439s-264.5 183 -434.5 183zM843.998 1376c192 0 355.667 -68.167 491 -204.5s203 -300.833 203 -493.5
c0 -192 -68 -355.833 -204 -491.5s-300 -203.5 -492 -203.5s-356.167 67.833 -492.5 203.5s-204.5 299.5 -204.5 491.5c0 194 68 358.833 204 494.5s301 203.5 495 203.5z" />
    <glyph glyph-name="ordfeminine" unicode="&#xaa;" horiz-adv-x="631" 
d="M434 1384c-18 15.333 -41 23 -69 23c-57.333 0 -118.333 -46.333 -183 -139c-61.333 -88 -92 -162.667 -92 -224c0 -40.667 15.667 -61 47 -61c78 0 177 133.667 297 401zM358 1165c-94.667 -154 -174.999 -230.998 -240.999 -230.998c-84 0 -126 51 -126 153
c0 86 42 167 126 243c82 73.333 166.667 110 254 110c46 0 91 -9 135 -27l8 -10v-4c0 -20.667 -18.833 -81.334 -56.5 -182.001s-56.5 -168.334 -56.5 -203.001c0 -19.333 9.66699 -29 29 -29c44 0 152.667 115.333 326 346c2.66699 -4 4 -10 4 -18
c0 -36.667 -51.333 -109 -154 -217s-174.334 -162 -215.001 -162c-52 0 -78 24 -78 72c0 18.667 15 71.667 45 159z" />
    <glyph glyph-name="guillemotleft" unicode="&#xab;" horiz-adv-x="952" 
d="M879 625c14.667 10.667 26.667 15.999 36 15.999c15.333 0 23 -6.66699 23 -20c0 -8 -6.33301 -18 -19 -30c-4 -3.33301 -6.66699 -5.66602 -8 -6.99902l-245 -228l63 -256c4 -16 6 -26 6 -30c0 -18 -6.66699 -27 -20 -27c-12.667 0 -25 12.333 -37 37l-141 293z
M571 624.999c14.667 10.667 27.667 15.999 39 15.999c15.333 0 23 -6.66699 23 -20c0 -8 -6.33301 -18 -19 -30c-4 -3.33301 -6.66699 -5.66602 -8 -6.99902l-246 -228l62 -256c4 -16.667 6 -26.667 6 -30c0 -18 -6 -27 -18 -27c-12.667 0 -25 12.333 -37 37l-142 293z" />
    <glyph glyph-name="logicalnot" unicode="&#xac;" horiz-adv-x="1706" 
d="M254 858h1198v-502h-96v402h-1102v100z" />
    <glyph glyph-name="minus" unicode="&#xad;" horiz-adv-x="1155" 
d="M1203 631c-68.667 0 -159.002 4.33203 -271.002 12.999c-130.667 10 -220 15.667 -268 17c-18.667 0.666992 -96.667 1 -234 1c-42 0 -62.333 4.33301 -61 13c18.667 9.33301 79 18 181 26c87.333 6.66699 158.333 10 213 10c64.667 0 159.334 -4.16699 284.001 -12.5
s219.334 -12.5 284.001 -12.5c46.667 0 103.167 4.16699 169.5 12.5s113.5 12.5 141.5 12.5c46 0 69 -5.33301 69 -16c0 -5.33301 -25.333 -13.666 -76 -24.999c-119.333 -26 -263.333 -39 -432 -39z" />
    <glyph glyph-name="minus" unicode="&#x2212;" horiz-adv-x="1155" 
d="M1203 631c-68.667 0 -159.002 4.33203 -271.002 12.999c-130.667 10 -220 15.667 -268 17c-18.667 0.666992 -96.667 1 -234 1c-42 0 -62.333 4.33301 -61 13c18.667 9.33301 79 18 181 26c87.333 6.66699 158.333 10 213 10c64.667 0 159.334 -4.16699 284.001 -12.5
s219.334 -12.5 284.001 -12.5c46.667 0 103.167 4.16699 169.5 12.5s113.5 12.5 141.5 12.5c46 0 69 -5.33301 69 -16c0 -5.33301 -25.333 -13.666 -76 -24.999c-119.333 -26 -263.333 -39 -432 -39z" />
    <glyph glyph-name="registered" unicode="&#xae;" horiz-adv-x="1683" 
d="M723 717l67.999 -0.000976562c164.667 0 247 58.667 247 176c0 54.667 -21.667 96.334 -65 125.001c-37.333 24.667 -84.666 37 -141.999 37c-72 0 -108 -24.667 -108 -74v-264zM468.999 1090l392.997 -0.00195312c80.667 0 149 -13 205 -39c74 -34.667 111 -88 111 -160
c0 -96 -96.333 -162.333 -289 -199c74 -24.667 127 -58 159 -100c28.667 -37.333 50.334 -96.333 65.001 -177c10 -56.667 29.333 -85 58 -85c48 0 72 43.667 72 131h41v-12c0 -118 -52 -177 -156 -177c-77.333 0 -122.666 35.333 -135.999 106l-27 198
c-26.667 70.667 -95 106 -205 106c-4.66699 0 -11.167 -0.333008 -19.5 -1s-14.166 -1 -17.499 -1v-246c0 -40.667 12.333 -68.667 37 -84c18.667 -11.333 50 -17.666 94 -18.999v-40h-385v40c44.667 2 76 8.33301 94 19c24.667 15.333 37 43.333 37 84v514
c0 40.667 -12.333 68.334 -37 83.001c-18 10.667 -49.333 16.667 -94 18v41zM843.996 1300c-170 0 -315.334 -61.165 -436.001 -183.498s-181 -268.5 -181 -438.5c0 -168.667 60.333 -314.334 181 -437.001s265.334 -184 434.001 -184c169.333 0 314.333 61.167 435 183.5
s181 268.166 181 437.499c0 170 -59.833 316.167 -179.5 438.5s-264.5 183.5 -434.5 183.5zM843.995 1376c191.333 0 354.834 -68.333 490.501 -205s203.5 -301 203.5 -493c0 -192.667 -68.333 -356.667 -205 -492s-301.667 -203 -495 -203
c-190.667 0 -353.834 68.167 -489.501 204.5s-203.5 299.833 -203.5 490.5c0 194 68 358.833 204 494.5s301 203.5 495 203.5z" />
    <glyph glyph-name="macron" unicode="&#xaf;" horiz-adv-x="1773" 
d="M267 76c178.667 58 323.663 87 434.996 87c72.667 0 249.667 -15.333 531 -46c23.333 -2.66699 47 -4 71 -4c118.667 0 227 20 325 60c130 53.333 195 130.333 195 231c0 60 -24.667 107 -74 141c-42.667 30 -95.334 45 -158.001 45
c-142.667 0 -259.334 -63.667 -350.001 -191l-12 6c90.667 150 214.334 225 371.001 225c71.333 0 133 -19 185 -57c57.333 -42 86 -97.333 86 -166c0 -136 -105 -245.667 -315 -329c-164.667 -64 -328.667 -96 -492 -96c-77.333 0 -193.166 6.66699 -347.499 20
s-270.166 20 -347.499 20c-57.333 0 -104.666 -7 -141.999 -21c-34 -12 -75.333 -36.333 -124 -73c-15.333 13.333 -23 22.666 -23 27.999c0 31.333 109.667 131.333 329 300c508.667 390.667 1115.33 799.334 1820 1226c-168 -36.667 -286 -55 -354 -55
c-40 0 -85 2.33301 -135 7c-134.667 12.667 -297 19 -487 19c-130.667 0 -248.667 -21.333 -354 -64c-140.667 -57.333 -211 -141 -211 -251c0 -48.667 16.167 -89.5 48.5 -122.5s72.833 -49.5 121.5 -49.5c165.333 0 308.333 74.667 429 224l15 -8
c-49.333 -64.667 -113.333 -122.667 -192 -174c-90 -58.667 -171.667 -88 -245 -88c-67.333 0 -122.166 20.167 -164.499 60.5s-63.5 93.833 -63.5 160.5c0 104 53 200 159 288c88 72.667 189.333 125 304 157c67.333 18.667 147.333 28 240 28
c76 0 188.5 -9.66699 337.5 -29s261.167 -29 336.5 -29c121.333 0 270 21.667 446 65l26 -16l-420 -287l-373 -277c-170 -126 -314.333 -228 -433 -306c-184.667 -120 -393 -248.333 -625 -385c-162.667 -96 -285.667 -187.333 -369 -274zM1710 1770
c-51.333 0 -77 22.332 -77 66.999s23.333 67 70 67c19.333 0 37 -6.66699 53 -20s24 -29.666 24 -48.999c0 -18.667 -7 -34.167 -21 -46.5s-30.333 -18.5 -49 -18.5z" />
    <glyph glyph-name="macron" unicode="&#x2c9;" horiz-adv-x="1773" 
d="M267 76c178.667 58 323.663 87 434.996 87c72.667 0 249.667 -15.333 531 -46c23.333 -2.66699 47 -4 71 -4c118.667 0 227 20 325 60c130 53.333 195 130.333 195 231c0 60 -24.667 107 -74 141c-42.667 30 -95.334 45 -158.001 45
c-142.667 0 -259.334 -63.667 -350.001 -191l-12 6c90.667 150 214.334 225 371.001 225c71.333 0 133 -19 185 -57c57.333 -42 86 -97.333 86 -166c0 -136 -105 -245.667 -315 -329c-164.667 -64 -328.667 -96 -492 -96c-77.333 0 -193.166 6.66699 -347.499 20
s-270.166 20 -347.499 20c-57.333 0 -104.666 -7 -141.999 -21c-34 -12 -75.333 -36.333 -124 -73c-15.333 13.333 -23 22.666 -23 27.999c0 31.333 109.667 131.333 329 300c508.667 390.667 1115.33 799.334 1820 1226c-168 -36.667 -286 -55 -354 -55
c-40 0 -85 2.33301 -135 7c-134.667 12.667 -297 19 -487 19c-130.667 0 -248.667 -21.333 -354 -64c-140.667 -57.333 -211 -141 -211 -251c0 -48.667 16.167 -89.5 48.5 -122.5s72.833 -49.5 121.5 -49.5c165.333 0 308.333 74.667 429 224l15 -8
c-49.333 -64.667 -113.333 -122.667 -192 -174c-90 -58.667 -171.667 -88 -245 -88c-67.333 0 -122.166 20.167 -164.499 60.5s-63.5 93.833 -63.5 160.5c0 104 53 200 159 288c88 72.667 189.333 125 304 157c67.333 18.667 147.333 28 240 28
c76 0 188.5 -9.66699 337.5 -29s261.167 -29 336.5 -29c121.333 0 270 21.667 446 65l26 -16l-420 -287l-373 -277c-170 -126 -314.333 -228 -433 -306c-184.667 -120 -393 -248.333 -625 -385c-162.667 -96 -285.667 -187.333 -369 -274zM1710 1770
c-51.333 0 -77 22.332 -77 66.999s23.333 67 70 67c19.333 0 37 -6.66699 53 -20s24 -29.666 24 -48.999c0 -18.667 -7 -34.167 -21 -46.5s-30.333 -18.5 -49 -18.5z" />
    <glyph glyph-name="degree" unicode="&#xb0;" horiz-adv-x="674" 
d="M767 1393c-62.667 0 -116.165 -21.333 -160.498 -64s-66.5 -94.667 -66.5 -156s22 -113 66 -155s97.667 -63 161 -63s116.666 21 159.999 63s65 93.667 65 155s-21.833 113.333 -65.5 156s-96.834 64 -159.501 64zM765.002 1452c77.333 0 142.667 -27.002 196 -81.002
s80 -119.667 80 -197s-27 -143.166 -81 -197.499s-119.667 -81.5 -197 -81.5c-78.667 0 -144.5 26.833 -197.5 80.5s-79.5 119.834 -79.5 198.501c0 78 27 143.833 81 197.5s120 80.5 198 80.5z" />
    <glyph glyph-name="plusminus" unicode="&#xb1;" horiz-adv-x="1706" 
d="M254 150h1198v-99h-1198v99zM805 1169h98v-348h549v-98h-549v-348h-98v348h-551v98h551v348z" />
    <glyph glyph-name="twosuperior" unicode="&#xb2;" horiz-adv-x="687" 
d="M125 721c52.667 16 97.3311 23.998 133.998 23.998c18.667 0 46.5 -0.5 83.5 -1.5s64.833 -1.5 83.5 -1.5c82.667 0 139.334 12 170.001 36c6.66699 -4.66699 10 -9.66699 10 -15c0 -4 -2.66699 -10 -8 -18c-28.667 -47.333 -85 -71 -169 -71
c-17.333 0 -44 0.666992 -80 2s-63 2 -81 2c-69.333 0 -131.666 -8.66699 -186.999 -26c-6.66699 8.66699 -10 15.334 -10 20.001c0 4 1.66699 9 5 15c6.66699 14 20.334 33 41.001 57c17.333 20 73 51.667 167 95l192 88c56 26.667 109 65.334 159 116.001
c58.667 58.667 88 110.334 88 155.001c0 31.333 -11.833 56.666 -35.5 75.999s-54.167 29 -91.5 29c-56.667 0 -115 -19 -175 -57c-64 -41.333 -96 -85 -96 -131c0 -41.333 22.333 -62 67 -62c18 0 37 6.33301 57 19c-31.333 12 -47 28.333 -47 49c0 31.333 17 47 51 47
c39.333 0 59 -17.333 59 -52c0 -16.667 -12 -33.834 -36 -51.501s-46.333 -26.5 -67 -26.5c-69.333 0 -104 28.667 -104 86c0 54.667 40 103.334 120 146.001c71.333 38 141.666 57 210.999 57c58 0 106.5 -14 145.5 -42s58.5 -65.667 58.5 -113
c0 -58.667 -44 -115 -132 -169c-35.333 -22 -110 -57.667 -224 -107l-262 -113c-30.667 -13.333 -63 -34 -97 -62z" />
    <glyph glyph-name="threesuperior" unicode="&#xb3;" horiz-adv-x="481" 
d="M1056 1330c134 43.333 244.671 90.999 332.004 142.999l-12 -41c-140.667 -90.667 -246.334 -146.667 -317.001 -168c-8.66699 -47.333 -32.834 -103.666 -72.501 -168.999s-84.5 -122.666 -134.5 -171.999c-110 -108.667 -237 -221 -381 -337
c-114.667 -226.667 -172 -383.667 -172 -471c0 -49.333 16.333 -74 49 -74c63.333 0 154.666 98.667 273.999 296l28 -23c-129.333 -212.667 -234 -319.334 -314 -320.001c-94.667 -0.666992 -142 57 -142 173c0 57.333 12 125.333 36 204
c-21.333 -22 -40.666 -43.667 -57.999 -65l-27 30c24 35.333 63.667 79.333 119 132c36 91.333 81 181 135 269c100 162.667 196.667 297.667 290 405c-120.667 -37.333 -208.334 -71.333 -263.001 -102l6 31c84 58 203.667 117 359 177
c79.333 72.667 146.666 109 201.999 109c32.667 0 53.667 -9 63 -27zM865.004 1200c-95.333 -102.667 -198 -253.334 -308 -452.001l-27 -50c78 64 177.333 150.667 298 260c40 42 78 93 114 153c33.333 56 54.333 101.333 63 136
c-51.333 -15.333 -92.333 -28.666 -123 -39.999z" />
    <glyph glyph-name="acute" unicode="&#xb4;" 
d="M556 755c100.667 46.667 201.333 150 302 310h-177c-12.667 -98 -54.667 -198.333 -126 -301z" />
    <glyph glyph-name="mu1" unicode="&#xb5;" horiz-adv-x="1180" 
 />
    <glyph glyph-name="mu1" unicode="&#x3bc;" horiz-adv-x="1180" 
 />
    <glyph glyph-name="paragraph" unicode="&#xb6;" 
d="M940 1479v-70h-127v-1409h-82v1409h-186v-1409h-84v782c-110 5.33301 -198.667 36.666 -266 93.999c-74 62.667 -111 147.334 -111 254.001c0 110.667 38.667 197.667 116 261c72 58.667 164.333 88 277 88h463z" />
    <glyph glyph-name="periodcentered" unicode="&#xb7;" horiz-adv-x="473" 
d="M236 676c23.333 0 43 -7.99805 59 -23.998s24 -35.333 24 -58s-8.16699 -42.334 -24.5 -59.001s-35.833 -25 -58.5 -25c-23.333 0 -42.833 8.16699 -58.5 24.5s-23.5 36.166 -23.5 59.499c0 54.667 27.333 82 82 82z" />
    <glyph glyph-name="periodcentered" unicode="&#x2219;" horiz-adv-x="473" 
d="M236 676c23.333 0 43 -7.99805 59 -23.998s24 -35.333 24 -58s-8.16699 -42.334 -24.5 -59.001s-35.833 -25 -58.5 -25c-23.333 0 -42.833 8.16699 -58.5 24.5s-23.5 36.166 -23.5 59.499c0 54.667 27.333 82 82 82z" />
    <glyph glyph-name="cedilla" unicode="&#xb8;" 
d="M285 0h52.998l-35 -109c30.667 2.66699 48.334 4 53.001 4c112 0 168 -48.667 168 -146c0 -48 -19.667 -84.667 -59 -110c-33.333 -20.667 -75.666 -31 -126.999 -31c-104.667 0 -192.667 26.667 -264 80l14 34c86.667 -40.667 157 -61 211 -61c80.667 0 121 30 121 90
c0 57.333 -39.667 86 -119 86c-24 0 -49.333 -2.66699 -76 -8z" />
    <glyph glyph-name="onesuperior" unicode="&#xb9;" horiz-adv-x="780" 
d="M764 -344c-41.333 -72.667 -96.668 -108.997 -166.001 -108.997c-40.667 0 -76.667 12.667 -108 38s-48 55.666 -50 90.999c-4 76 78 189.333 246 340c-22.667 -18 -50.667 -27 -84 -27s-59.666 10.667 -78.999 32s-28.666 48.666 -27.999 81.999v35
c-86.667 -96 -156.334 -144 -209.001 -144c-49.333 0 -87.666 24.333 -114.999 73c-22.667 40.667 -34 88 -34 142c0 106.667 41.167 203.334 123.5 290.001s175.833 130 280.5 130c62 0 111 -28.333 147 -85l37 67h119l-140 -256
c-79.333 -148.667 -119 -236.334 -119 -263.001c0 -30.667 18.667 -46 56 -46c34 0 88.333 43.333 163 130c32.667 38 74.667 91.333 126 160l28 -27c-61.333 -88.667 -133 -175.667 -215 -261c-40.667 -38 -98.667 -98.667 -174 -182
c-43.333 -54.667 -65 -106.334 -65 -155.001c0 -88.667 36.333 -133 109 -133c55.333 0 105.666 26 150.999 78zM571.998 591.003c-69.333 0 -147.667 -62.333 -235 -187c-83.333 -118 -125 -214.667 -125 -290c0 -20 6.33301 -38.5 19 -55.5s28.667 -25.5 48 -25.5
c60.667 0 141.667 63.667 243 191c98.667 124 148 218.667 148 284c0 24 -10 43.833 -30 59.5s-42.667 23.5 -68 23.5z" />
    <glyph glyph-name="ordmasculine" unicode="&#xba;" horiz-adv-x="643" 
d="M465 1085c4 -20 16.333 -30 37 -30c36 0 128 96.667 276 290c2.66699 -7.33301 4 -13.333 4 -18c0 -31.333 -41.333 -93 -124 -185c-85.333 -95.333 -147 -143 -185 -143c-22.667 0 -41.667 9 -57 27c-70.667 -65.333 -141.667 -98 -213 -98
c-57.333 0 -103.833 16.167 -139.5 48.5s-53.5 76.833 -53.5 133.5c0 80 36.667 155.667 110 227s150 107 230 107c51.333 0 93.333 -18 126 -54c30.667 -34.667 46 -78 46 -130c0 -52.667 -19 -111 -57 -175zM444 1313c-13.333 66.667 -47.332 99.999 -101.999 99.999
c-58.667 0 -111.334 -41.667 -158.001 -125c-42 -73.333 -63 -141.666 -63 -204.999c0 -83.333 32.667 -125 98 -125c49.333 0 103.333 40.333 162 121c-6.66699 13.333 -10 31.333 -10 54c0 56.667 24.333 116.667 73 180z" />
    <glyph glyph-name="guillemotright" unicode="&#xbb;" horiz-adv-x="952" 
d="M190 61c-16 -12 -28.667 -18.001 -38 -18.001c-15.333 0 -23 7.66699 -23 23c0 6.66699 8.33301 18.334 25 35.001l1 1l248 228l-63 256c-4 16 -6 25.333 -6 28c0 18 6 27 18 27c14.667 0 27.667 -11.667 39 -35l139 -293zM495 60.999c-16 -12 -28.667 -18 -38 -18
c-15.333 0 -23 7.66699 -23 23c0 6.66699 8 18 24 34l2 2l249 228l-64 256c-4 16 -6 25.333 -6 28c0 18 6 27 18 27c15.333 0 28.333 -11.333 39 -34l140 -294z" />
    <glyph glyph-name="onequarter" unicode="&#xbc;" horiz-adv-x="1760" 
d="M740 1304c-17.333 -27.333 -45 -61.332 -83 -101.999l-92 -96c-164 -184.667 -275 -331.667 -333 -441h-125c-0.666992 4 -1 8 -1 12c0 38.667 60 115 180 229l240 227l-232 -136c-1.33301 -1.33301 -6 0.666992 -14 6c14.667 10.667 77 49.667 187 117
c76 47.333 134.667 91.666 176 132.999s70.333 62 87 62c6.66699 0 10 -3.33301 10 -10v-1zM986 180.001c0 -20 37.999 -29.999 113.999 -29.999c89.333 0 162.333 2.33301 219 7c126.667 138.667 245.667 257 357 355c7.33301 -0.666992 11 -2.66699 11 -6
c0 -7.33301 -13 -28.333 -39 -63c-70 -90.667 -138.667 -185.334 -206 -284.001h45c12.667 0 31 2.83301 55 8.5s42 8.5 54 8.5c9.33301 0 14 -3.66699 14 -11c0 -8.66699 -60.667 -17 -182 -25l-118 -183h-118c7.33301 24 42 82.667 104 176
c-52 -2.66699 -86.667 -4 -104 -4h-137c-62 0 -93 15.333 -93 46c0 30 58.667 77 176 141l233 126c76 54.667 136.333 112.667 181 174c32 3.33301 60 5 84 5c22 0 47 -3 75 -9c-61.333 -52 -146.666 -106 -255.999 -162l-264 -127c-136.667 -70 -205 -117.667 -205 -143z
M1445 1386l-931 -1437h-90l935 1437h86z" />
    <glyph glyph-name="onehalf" unicode="&#xbd;" horiz-adv-x="1770" 
d="M740 1304c-17.333 -27.333 -45 -61.332 -83 -101.999l-92 -96c-164 -184.667 -275 -331.667 -333 -441h-125c-0.666992 4 -1 8 -1 12c0 38.667 60 115 180 229l240 227l-232 -136c-1.33301 -1.33301 -6 0.666992 -14 6c14.667 10.667 77 49.667 187 117
c76 47.333 134.667 91.666 176 132.999s70.333 62 87 62c6.66699 0 10 -3.33301 10 -10v-1zM1006 21.001c52.667 16 97.334 23.9951 134.001 23.9951c18.667 0 46.667 -0.5 84 -1.5s65.333 -1.5 84 -1.5c82 0 138.667 12.333 170 37c6 -5.33301 9 -10.666 9 -15.999
c0 -4 -2.33301 -10 -7 -18c-29.333 -46.667 -85.666 -70 -168.999 -70c-18 0 -44.833 0.666992 -80.5 2s-62.5 2 -80.5 2c-70 0 -132.667 -8.66699 -188 -26c-6.66699 8.66699 -10 15.334 -10 20.001c0 4 1.66699 9 5 15c7.33301 13.333 21.333 32 42 56
c17.333 20 72.666 52 165.999 96l193 87c55.333 26.667 108.333 65.334 159 116.001c58.667 58.667 88 110.334 88 155.001c0 31.333 -12 56.833 -36 76.5s-54.667 29.5 -92 29.5c-56.667 0 -115 -19.333 -175 -58c-63.333 -41.333 -95 -85 -95 -131
c0 -40.667 22 -61 66 -61c18 0 37.333 6 58 18c-32 12 -48 28.333 -48 49c0 31.333 17.333 47 52 47c39.333 0 59 -17.333 59 -52c0 -16.667 -12 -33.834 -36 -51.501s-46.333 -26.5 -67 -26.5c-70 0 -105 28.667 -105 86c0 54.667 40 103.334 120 146.001
c71.333 38 141.666 57 210.999 57c58 0 106 -13.333 144 -40c40.667 -29.333 61 -67.666 61 -114.999c0 -58.667 -44 -115 -132 -169c-35.333 -22 -110.333 -57.667 -225 -107l-262 -113c-30.667 -13.333 -63 -34 -97 -62zM1445 1386l-931 -1437h-90l935 1437h86z" />
    <glyph glyph-name="threequarters" unicode="&#xbe;" horiz-adv-x="1775" 
d="M1445 1386l-931 -1437h-90l935 1437h86zM471 1048c152 -13.333 227.999 -60.6631 227.999 -141.996c0 -52 -32.333 -103 -97 -153c-59.333 -44.667 -122 -73.334 -188 -86.001c-31.333 -6 -64.333 -9 -99 -9c-52.667 0 -98.334 9.66699 -137.001 29
c-46 23.333 -69 55.666 -69 96.999c0 25.333 10 47.5 30 66.5s45.333 28.5 76 28.5c23.333 0 44 -6.5 62 -19.5s27 -29.167 27 -48.5c0 -34.667 -20 -52 -60 -52c-14 0 -27 5.33301 -39 16s-18 21.667 -18 33c0 14 15.333 31.333 46 52
c-67.333 -2.66699 -101 -29.667 -101 -81c0 -36 19.333 -63.667 58 -83c32.667 -16 72 -24 118 -24c64.667 0 128.334 30.333 191.001 91c62 58 93 114.333 93 169c0 24 -9.83301 45.167 -29.5 63.5s-43.167 27.5 -70.5 27.5h-30c-15.333 0 -34.666 -4.66699 -57.999 -14
s-40.333 -14 -51 -14c-7.33301 0 -11 2.66699 -11 8c0 9.33301 27.333 25 82 47l103 39c71.333 27.333 169.333 78 294 152c-34 -2.66699 -132 -4 -294 -4c-41.333 0 -74 -7 -98 -21c-28.667 -16.667 -44.667 -25.334 -48 -26.001c-6 2 -9 4.33301 -9 7
c0 6 8.33301 19.667 25 41c36.667 48.667 107.667 73 213 73c14 0 34.333 -0.333008 61 -1s46.667 -1 60 -1c82.667 0 136.667 4 162 12c14 -1.33301 21 -6 21 -14c0 -6.66699 -8 -17.667 -24 -33l-33 -32c-23.333 -22.667 -152 -87.334 -386 -194.001zM985.999 180.003
c0 -20 37.999 -29.999 113.999 -29.999c89.333 0 162.333 2.33301 219 7c126.667 138.667 245.667 257 357 355c7.33301 -0.666992 11 -2.66699 11 -6c0 -7.33301 -13 -28.333 -39 -63c-70 -90.667 -138.667 -185.334 -206 -284.001h45c12.667 0 31 2.83301 55 8.5
s42 8.5 54 8.5c9.33301 0 14 -3.66699 14 -11c0 -8.66699 -60.667 -17 -182 -25l-118 -183h-118c7.33301 24 42 82.667 104 176c-52 -2.66699 -86.667 -4 -104 -4h-137c-62 0 -93 15.333 -93 46c0 30 58.667 77 176 141l233 126c76 54.667 136.333 112.667 181 174
c32 3.33301 60 5 84 5c22 0 47 -3 75 -9c-61.333 -52 -146.666 -106 -255.999 -162l-264 -127c-136.667 -70 -205 -117.667 -205 -143z" />
    <glyph glyph-name="questiondown" unicode="&#xbf;" horiz-adv-x="773" 
d="M563 -8c-28 0 -52.001 6.66797 -72.001 20.001c-23.333 16 -35 37.667 -35 65c0 15.333 9.66699 40 29 74c-8.66699 8 -14.334 12 -17.001 12c-94 0 -161 -13.333 -201 -40c-52.667 -84.667 -98 -127 -136 -127c-18.667 0 -28 7.66699 -28 23c0 28 16.667 59.667 50 95
c32 32.667 62.333 53.334 91 62.001c115.333 129.333 208 239.333 278 330c-69.333 4 -129.666 20 -180.999 48c-36.667 -56.667 -95 -139.334 -175 -248.001l-32 28c49.333 64.667 105 144 167 238c-25.333 14 -38 34.667 -38 62c0 34 14 51 42 51
c48.667 0 70.667 -34.333 66 -103c50.667 -26 101 -39 151 -39c2.66699 0 11.334 0.666992 26.001 2l116 97c54 41.333 97 62 129 62c26.667 0 40 -13.667 40 -41c0 -42 -34.333 -80 -103 -114c-50 -24.667 -102.333 -41.334 -157 -50.001l-264 -310
c64.667 15.333 120.334 23 167.001 23c36 0 59.667 -14.333 71 -43c3.33301 -8 7.66602 -36.667 12.999 -86c4.66699 -38 20 -57 46 -57c34 0 90 44 168 132c54 60.667 102.667 122.667 146 186l30 -29c-153.333 -215.333 -282.333 -323 -387 -323zM551.999 839.001
c-51.333 0 -77 22.332 -77 66.999s23.333 67 70 67c19.333 0 37 -6.66699 53 -20s24 -29.666 24 -48.999c0 -18.667 -7 -34.167 -21 -46.5s-30.333 -18.5 -49 -18.5z" />
    <glyph glyph-name="Agrave" unicode="&#xc0;" horiz-adv-x="2591" 
d="M2596 358c91.333 10.667 191 64.665 299 161.998l14 -15c-73.333 -85.333 -182.333 -148 -327 -188l-124 -305h-83c56.667 140 101.334 244.667 134 314c-62 3.33301 -112.333 23.333 -151 60c-40.667 38 -61 87.667 -61 149c0 52.667 17.5 96.334 52.5 131.001
s78.833 52 131.5 52c72.667 0 115.334 -47.333 128 -142l301 660l163 368c-319.333 -52.667 -580.333 -260 -783 -622l-505 -951c-242.667 -327.333 -581.667 -491 -1017 -491c-196 0 -364 55.667 -504 167c-151.333 120.667 -227 276 -227 466
c0 235.333 89 435.333 267 600c174 160.667 380 241 618 241c136.667 0 254 -34.667 352 -104c110.667 -77.333 166 -181.666 166 -312.999c0 -160.667 -121 -327 -363 -499l-14 10c112 88.667 185.333 156.334 220 203.001c56 76 84 170 84 282
c0 126 -47.333 224.667 -142 296c-85.333 63.333 -193.333 95 -324 95c-244 0 -430.333 -73.667 -559 -221c-121.333 -140 -181 -333 -179 -579v-22c0.666992 -72 15.334 -141.333 44.001 -208c45.333 -105.333 123.333 -195.5 234 -270.5s223 -112.5 337 -112.5
c207.333 0 399.333 77 576 231c137.333 120 272.666 295 405.999 525c18.667 32 117.667 221.667 297 569c99.333 191.333 251.666 361.666 457 510.999c220 159.333 430.333 238.333 631 237c-34 -101.333 -130.333 -336 -289 -704l-124 -294
c-49.333 -114.667 -94.666 -210.667 -136 -288zM2347 522.998c0 -44 16.833 -83.168 50.5 -117.501s72.5 -52.166 116.5 -53.499c53.333 120 80 192.667 80 218c0 30 -10.333 57.5 -31 82.5s-45.667 37.5 -75 37.5c-39.333 0 -73.333 -18.333 -102 -55
c-26 -34 -39 -71.333 -39 -112zM3072 1673c-100.667 46.667 -201.334 150 -302 310h177c12.667 -98 54.667 -198.333 126 -301z" />
    <glyph glyph-name="Aacute" unicode="&#xc1;" horiz-adv-x="2591" 
d="M2596 358c91.333 10.667 191 64.665 299 161.998l14 -15c-73.333 -85.333 -182.333 -148 -327 -188l-124 -305h-83c56.667 140 101.334 244.667 134 314c-62 3.33301 -112.333 23.333 -151 60c-40.667 38 -61 87.667 -61 149c0 52.667 17.5 96.334 52.5 131.001
s78.833 52 131.5 52c72.667 0 115.334 -47.333 128 -142l301 660l163 368c-319.333 -52.667 -580.333 -260 -783 -622l-505 -951c-242.667 -327.333 -581.667 -491 -1017 -491c-196 0 -364 55.667 -504 167c-151.333 120.667 -227 276 -227 466
c0 235.333 89 435.333 267 600c174 160.667 380 241 618 241c136.667 0 254 -34.667 352 -104c110.667 -77.333 166 -181.666 166 -312.999c0 -160.667 -121 -327 -363 -499l-14 10c112 88.667 185.333 156.334 220 203.001c56 76 84 170 84 282
c0 126 -47.333 224.667 -142 296c-85.333 63.333 -193.333 95 -324 95c-244 0 -430.333 -73.667 -559 -221c-121.333 -140 -181 -333 -179 -579v-22c0.666992 -72 15.334 -141.333 44.001 -208c45.333 -105.333 123.333 -195.5 234 -270.5s223 -112.5 337 -112.5
c207.333 0 399.333 77 576 231c137.333 120 272.666 295 405.999 525c18.667 32 117.667 221.667 297 569c99.333 191.333 251.666 361.666 457 510.999c220 159.333 430.333 238.333 631 237c-34 -101.333 -130.333 -336 -289 -704l-124 -294
c-49.333 -114.667 -94.666 -210.667 -136 -288zM2347 522.998c0 -44 16.833 -83.168 50.5 -117.501s72.5 -52.166 116.5 -53.499c53.333 120 80 192.667 80 218c0 30 -10.333 57.5 -31 82.5s-45.667 37.5 -75 37.5c-39.333 0 -73.333 -18.333 -102 -55
c-26 -34 -39 -71.333 -39 -112zM2835 1622c100.667 46.667 201.334 150 302 310h-177c-12.667 -98 -54.667 -198.333 -126 -301z" />
    <glyph glyph-name="Acircumflex" unicode="&#xc2;" horiz-adv-x="2591" 
d="M2596 358c91.333 10.667 191 64.665 299 161.998l14 -15c-73.333 -85.333 -182.333 -148 -327 -188l-124 -305h-83c56.667 140 101.334 244.667 134 314c-62 3.33301 -112.333 23.333 -151 60c-40.667 38 -61 87.667 -61 149c0 52.667 17.5 96.334 52.5 131.001
s78.833 52 131.5 52c72.667 0 115.334 -47.333 128 -142l301 660l163 368c-319.333 -52.667 -580.333 -260 -783 -622l-505 -951c-242.667 -327.333 -581.667 -491 -1017 -491c-196 0 -364 55.667 -504 167c-151.333 120.667 -227 276 -227 466
c0 235.333 89 435.333 267 600c174 160.667 380 241 618 241c136.667 0 254 -34.667 352 -104c110.667 -77.333 166 -181.666 166 -312.999c0 -160.667 -121 -327 -363 -499l-14 10c112 88.667 185.333 156.334 220 203.001c56 76 84 170 84 282
c0 126 -47.333 224.667 -142 296c-85.333 63.333 -193.333 95 -324 95c-244 0 -430.333 -73.667 -559 -221c-121.333 -140 -181 -333 -179 -579v-22c0.666992 -72 15.334 -141.333 44.001 -208c45.333 -105.333 123.333 -195.5 234 -270.5s223 -112.5 337 -112.5
c207.333 0 399.333 77 576 231c137.333 120 272.666 295 405.999 525c18.667 32 117.667 221.667 297 569c99.333 191.333 251.666 361.666 457 510.999c220 159.333 430.333 238.333 631 237c-34 -101.333 -130.333 -336 -289 -704l-124 -294
c-49.333 -114.667 -94.666 -210.667 -136 -288zM2347 522.998c0 -44 16.833 -83.168 50.5 -117.501s72.5 -52.166 116.5 -53.499c53.333 120 80 192.667 80 218c0 30 -10.333 57.5 -31 82.5s-45.667 37.5 -75 37.5c-39.333 0 -73.333 -18.333 -102 -55
c-26 -34 -39 -71.333 -39 -112zM3052 1945h101l160 -271h-52l-163 181l-297 -181h-66z" />
    <glyph glyph-name="Atilde" unicode="&#xc3;" horiz-adv-x="2591" 
d="M2596 358c91.333 10.667 191 64.665 299 161.998l14 -15c-73.333 -85.333 -182.333 -148 -327 -188l-124 -305h-83c56.667 140 101.334 244.667 134 314c-62 3.33301 -112.333 23.333 -151 60c-40.667 38 -61 87.667 -61 149c0 52.667 17.5 96.334 52.5 131.001
s78.833 52 131.5 52c72.667 0 115.334 -47.333 128 -142l301 660l163 368c-319.333 -52.667 -580.333 -260 -783 -622l-505 -951c-242.667 -327.333 -581.667 -491 -1017 -491c-196 0 -364 55.667 -504 167c-151.333 120.667 -227 276 -227 466
c0 235.333 89 435.333 267 600c174 160.667 380 241 618 241c136.667 0 254 -34.667 352 -104c110.667 -77.333 166 -181.666 166 -312.999c0 -160.667 -121 -327 -363 -499l-14 10c112 88.667 185.333 156.334 220 203.001c56 76 84 170 84 282
c0 126 -47.333 224.667 -142 296c-85.333 63.333 -193.333 95 -324 95c-244 0 -430.333 -73.667 -559 -221c-121.333 -140 -181 -333 -179 -579v-22c0.666992 -72 15.334 -141.333 44.001 -208c45.333 -105.333 123.333 -195.5 234 -270.5s223 -112.5 337 -112.5
c207.333 0 399.333 77 576 231c137.333 120 272.666 295 405.999 525c18.667 32 117.667 221.667 297 569c99.333 191.333 251.666 361.666 457 510.999c220 159.333 430.333 238.333 631 237c-34 -101.333 -130.333 -336 -289 -704l-124 -294
c-49.333 -114.667 -94.666 -210.667 -136 -288zM2347 522.998c0 -44 16.833 -83.168 50.5 -117.501s72.5 -52.166 116.5 -53.499c53.333 120 80 192.667 80 218c0 30 -10.333 57.5 -31 82.5s-45.667 37.5 -75 37.5c-39.333 0 -73.333 -18.333 -102 -55
c-26 -34 -39 -71.333 -39 -112zM3258 1937h45c-29.333 -122 -86 -183 -170 -183c-14 0 -32.333 3 -55 9l-143 38c-27.333 7.33301 -47.333 11 -60 11c-50 0 -81.667 -26.667 -95 -80h-47c31.333 117.333 87.333 176 168 176c23.333 0 47.333 -3.33301 72 -10l143 -39
c14.667 -4 30.667 -6 48 -6c48.667 0 80 28 94 84z" />
    <glyph glyph-name="Adieresis" unicode="&#xc4;" horiz-adv-x="2591" 
d="M2596 358c91.333 10.667 191 64.665 299 161.998l14 -15c-73.333 -85.333 -182.333 -148 -327 -188l-124 -305h-83c56.667 140 101.334 244.667 134 314c-62 3.33301 -112.333 23.333 -151 60c-40.667 38 -61 87.667 -61 149c0 52.667 17.5 96.334 52.5 131.001
s78.833 52 131.5 52c72.667 0 115.334 -47.333 128 -142l301 660l163 368c-319.333 -52.667 -580.333 -260 -783 -622l-505 -951c-242.667 -327.333 -581.667 -491 -1017 -491c-196 0 -364 55.667 -504 167c-151.333 120.667 -227 276 -227 466
c0 235.333 89 435.333 267 600c174 160.667 380 241 618 241c136.667 0 254 -34.667 352 -104c110.667 -77.333 166 -181.666 166 -312.999c0 -160.667 -121 -327 -363 -499l-14 10c112 88.667 185.333 156.334 220 203.001c56 76 84 170 84 282
c0 126 -47.333 224.667 -142 296c-85.333 63.333 -193.333 95 -324 95c-244 0 -430.333 -73.667 -559 -221c-121.333 -140 -181 -333 -179 -579v-22c0.666992 -72 15.334 -141.333 44.001 -208c45.333 -105.333 123.333 -195.5 234 -270.5s223 -112.5 337 -112.5
c207.333 0 399.333 77 576 231c137.333 120 272.666 295 405.999 525c18.667 32 117.667 221.667 297 569c99.333 191.333 251.666 361.666 457 510.999c220 159.333 430.333 238.333 631 237c-34 -101.333 -130.333 -336 -289 -704l-124 -294
c-49.333 -114.667 -94.666 -210.667 -136 -288zM2347 522.998c0 -44 16.833 -83.168 50.5 -117.501s72.5 -52.166 116.5 -53.499c53.333 120 80 192.667 80 218c0 30 -10.333 57.5 -31 82.5s-45.667 37.5 -75 37.5c-39.333 0 -73.333 -18.333 -102 -55
c-26 -34 -39 -71.333 -39 -112zM2806 1841c0 22.667 9.16699 42 27.5 58s40.5 24 66.5 24s48.333 -8 67 -24s28 -35.333 28 -58s-9.33301 -42 -28 -58s-41 -24 -67 -24s-48.167 8 -66.5 24s-27.5 35.333 -27.5 58zM3141 1836c0 22.667 9.16699 42 27.5 58s40.833 24 67.5 24
c26 0 48.167 -8 66.5 -24s27.5 -35.333 27.5 -58s-9.16699 -42 -27.5 -58s-40.5 -24 -66.5 -24c-26.667 0 -49.167 8 -67.5 24s-27.5 35.333 -27.5 58z" />
    <glyph glyph-name="Aring" unicode="&#xc5;" horiz-adv-x="2591" 
d="M2596 358c91.333 10.667 191 64.665 299 161.998l14 -15c-73.333 -85.333 -182.333 -148 -327 -188l-124 -305h-83c56.667 140 101.334 244.667 134 314c-62 3.33301 -112.333 23.333 -151 60c-40.667 38 -61 87.667 -61 149c0 52.667 17.5 96.334 52.5 131.001
s78.833 52 131.5 52c72.667 0 115.334 -47.333 128 -142l301 660l163 368c-319.333 -52.667 -580.333 -260 -783 -622l-505 -951c-242.667 -327.333 -581.667 -491 -1017 -491c-196 0 -364 55.667 -504 167c-151.333 120.667 -227 276 -227 466
c0 235.333 89 435.333 267 600c174 160.667 380 241 618 241c136.667 0 254 -34.667 352 -104c110.667 -77.333 166 -181.666 166 -312.999c0 -160.667 -121 -327 -363 -499l-14 10c112 88.667 185.333 156.334 220 203.001c56 76 84 170 84 282
c0 126 -47.333 224.667 -142 296c-85.333 63.333 -193.333 95 -324 95c-244 0 -430.333 -73.667 -559 -221c-121.333 -140 -181 -333 -179 -579v-22c0.666992 -72 15.334 -141.333 44.001 -208c45.333 -105.333 123.333 -195.5 234 -270.5s223 -112.5 337 -112.5
c207.333 0 399.333 77 576 231c137.333 120 272.666 295 405.999 525c18.667 32 117.667 221.667 297 569c99.333 191.333 251.666 361.666 457 510.999c220 159.333 430.333 238.333 631 237c-34 -101.333 -130.333 -336 -289 -704l-124 -294
c-49.333 -114.667 -94.666 -210.667 -136 -288zM2347 522.998c0 -44 16.833 -83.168 50.5 -117.501s72.5 -52.166 116.5 -53.499c53.333 120 80 192.667 80 218c0 30 -10.333 57.5 -31 82.5s-45.667 37.5 -75 37.5c-39.333 0 -73.333 -18.333 -102 -55
c-26 -34 -39 -71.333 -39 -112zM3149 1968c-36 0 -67.5 -13.5 -94.5 -40.5s-40.5 -58.833 -40.5 -95.5c0 -28.667 9.66699 -52.667 29 -72s44.333 -29 75 -29c36.667 0 68.5 13.333 95.5 40s40.5 58.334 40.5 95.001c0 29.333 -9.83301 53.666 -29.5 72.999
s-44.834 29 -75.5 29zM3154 2019c44.667 0 81.167 -13.499 109.5 -40.499s42.5 -61.5 42.5 -103.5c0 -52 -19.667 -96.667 -59 -134s-85.333 -56 -138 -56c-44 0 -80.167 13.667 -108.5 41s-42.5 61.666 -42.5 102.999c0 52 19.5 96.667 58.5 134s84.833 56 137.5 56z" />
    <glyph glyph-name="AE" unicode="&#xc6;" horiz-adv-x="1311" 
d="M544 804c-110.667 -177.333 -166.003 -326.333 -166.003 -447c0 -106 31.667 -191.5 95 -256.5s148 -97.5 254 -97.5c132 0 270 58.333 414 175c150 122 225 247.667 225 377c0 40.667 -12.5 73.5 -37.5 98.5s-57.833 37.5 -98.5 37.5c-62 0 -127.667 -26 -197 -78
c-63.333 -47.333 -111.666 -101 -144.999 -161l-27 -7c33.333 74.667 88 143.667 164 207c82.667 68 162 102 238 102c56.667 0 104 -15 142 -45c41.333 -32.667 62 -77 62 -133c0 -144.667 -94 -286 -282 -424c-176 -128 -339.667 -192 -491 -192
c-140.667 0 -256 47.333 -346 142c-88 93.333 -132 211 -132 353c0 130 44.333 255.333 133 376c-109.333 34 -200.666 86 -273.999 156c-85.333 82 -128 174.333 -128 277c0 99.333 41 179 123 239c74.667 53.333 163.334 80 266.001 80
c163.333 0 281.333 -44.333 354 -133l-11 -6c-76 63.333 -177 95 -303 95c-92 0 -172 -32.333 -240 -97s-102 -142.334 -102 -233.001c0 -84 36 -158 108 -222c60 -53.333 135 -92.333 225 -117c130.667 178 306.667 324.667 528 440c224 116.667 445 175 663 175
c48.667 0 89 -13.667 121 -41s48 -65 48 -113c0 -107.333 -97.333 -213.666 -292 -318.999c-147.333 -79.333 -294.333 -135 -441 -167c-134 -30 -284 -43.667 -450 -41zM1541 1444c-129.333 0 -303.667 -70.999 -523 -212.999c-203.333 -133.333 -348 -259.333 -434 -378
c162.667 0 327 26 493 78c172 54.667 320.667 129.667 446 225c99.333 75.333 149 144.666 149 207.999c0 53.333 -43.667 80 -131 80zM1429 1609c100.667 46.667 201.333 150 302 310h-177c-12.667 -98 -54.667 -198.333 -126 -301z" />
    <glyph glyph-name="Ccedilla" unicode="&#xc7;" horiz-adv-x="1311" 
d="M544 804c-110.667 -177.333 -166.003 -326.333 -166.003 -447c0 -106 31.667 -191.5 95 -256.5s148 -97.5 254 -97.5c132 0 270 58.333 414 175c150 122 225 247.667 225 377c0 40.667 -12.5 73.5 -37.5 98.5s-57.833 37.5 -98.5 37.5c-62 0 -127.667 -26 -197 -78
c-63.333 -47.333 -111.666 -101 -144.999 -161l-27 -7c33.333 74.667 88 143.667 164 207c82.667 68 162 102 238 102c56.667 0 104 -15 142 -45c41.333 -32.667 62 -77 62 -133c0 -144.667 -94 -286 -282 -424c-176 -128 -339.667 -192 -491 -192
c-140.667 0 -256 47.333 -346 142c-88 93.333 -132 211 -132 353c0 130 44.333 255.333 133 376c-109.333 34 -200.666 86 -273.999 156c-85.333 82 -128 174.333 -128 277c0 99.333 41 179 123 239c74.667 53.333 163.334 80 266.001 80
c163.333 0 281.333 -44.333 354 -133l-11 -6c-76 63.333 -177 95 -303 95c-92 0 -172 -32.333 -240 -97s-102 -142.334 -102 -233.001c0 -84 36 -158 108 -222c60 -53.333 135 -92.333 225 -117c130.667 178 306.667 324.667 528 440c224 116.667 445 175 663 175
c48.667 0 89 -13.667 121 -41s48 -65 48 -113c0 -107.333 -97.333 -213.666 -292 -318.999c-147.333 -79.333 -294.333 -135 -441 -167c-134 -30 -284 -43.667 -450 -41zM1541 1444c-129.333 0 -303.667 -70.999 -523 -212.999c-203.333 -133.333 -348 -259.333 -434 -378
c162.667 0 327 26 493 78c172 54.667 320.667 129.667 446 225c99.333 75.333 149 144.666 149 207.999c0 53.333 -43.667 80 -131 80zM623.996 -5.99902h52.998l-35 -109c30.667 2.66699 48.334 4 53.001 4c112 0 168 -48.667 168 -146c0 -48 -19.667 -84.667 -59 -110
c-33.333 -20.667 -75.666 -31 -126.999 -31c-104.667 0 -192.667 26.667 -264 80l14 34c86.667 -40.667 157 -61 211 -61c80.667 0 121 30 121 90c0 57.333 -39.667 86 -119 86c-24 0 -49.333 -2.66699 -76 -8z" />
    <glyph glyph-name="Egrave" unicode="&#xc8;" horiz-adv-x="1562" 
d="M1279 19l-77.002 12.0039l-9 -2c-110.667 -32.667 -224.667 -49 -342 -49c-118.667 0 -221.667 22.667 -309 68c-107.333 56 -166.666 138 -177.999 246c-2 15.333 -3 30.666 -3 45.999c0 195.333 154.667 342.666 464 441.999c46.667 14.667 135 39 265 73
c-61.333 32.667 -109.666 76.667 -144.999 132c-39.333 -2.66699 -69.333 -4 -90 -4c-136 0 -259.333 24.333 -370 73c-142 62.667 -219.333 153.667 -232 273c-1.33301 10 -2 19.667 -2 29c0 96 53.333 170 160 222c85.333 41.333 184.666 62 297.999 62
c54.667 0 116.667 -12 186 -36c62 -22 108.667 -44.667 140 -68l-5 -5c-116.667 52.667 -225 79 -325 79c-98.667 0 -179.334 -22.667 -242.001 -68c-69.333 -50 -104 -120 -104 -210c0 -12 0.666992 -24.667 2 -38c18.667 -173.333 211 -261 577 -263
c-2 73.333 5.66699 131.333 23 174c18 45.333 54.333 92.333 109 141c74 66 174.333 117 301 153c111.333 30.667 226.666 46 345.999 46c236 0 360 -56.333 372 -169c12.667 -116 -116.666 -212 -387.999 -288c-156 -44 -345.333 -78 -568 -102
c-0.666992 -28.667 7.33301 -53.334 24 -74.001c18 -22.667 41 -34 69 -34c24.667 0 58.834 3.33301 102.501 10s77.834 10 102.501 10c53.333 0 86 -16.333 98 -49c10 -29.333 -4.66699 -48 -44 -56c-6.66699 -1.33301 -33.334 -2 -80.001 -2
c-14 0 -70.667 8.33301 -170 25c-18 3.33301 -33.333 5 -46 5c-129.333 0 -263.666 -56.667 -402.999 -170c-146.667 -118.667 -220 -241.334 -220 -368.001c0 -74 25 -134.833 75 -182.5s112.333 -71.5 187 -71.5h132c48.667 0 109 8 181 24
c-94 38.667 -141 107.667 -141 207c0 113.333 58.667 214.333 176 303c108.667 82 221.334 123 338.001 123c128 0 192 -55 192 -165c0 -58 -21.333 -118.667 -64 -182c-102.667 -149.333 -244.334 -251 -425.001 -305l-4 -1zM1984 1416c-6 58.667 -64.332 88 -174.999 88
c-138.667 0 -263.667 -23.667 -375 -71c-129.333 -55.333 -224.333 -137.333 -285 -246c-18 -34 -25 -84 -21 -150c463.333 43.333 739.333 138.333 828 285c21.333 36 30.666 67.333 27.999 94zM1590 393.004c14 32 21 65.667 21 101c0 95.333 -43.667 143 -131 143
c-96 0 -193.667 -40 -293 -120c-105.333 -84.667 -158 -175.334 -158 -272.001c0 -93.333 40.667 -155.666 122 -186.999c98.667 28 186.667 70.667 264 128c82.667 60.667 141 129.667 175 207zM1897 1621c-100.667 46.667 -201.333 150 -302 310h177
c12.667 -98 54.667 -198.333 126 -301z" />
    <glyph glyph-name="Eacute" unicode="&#xc9;" horiz-adv-x="1562" 
d="M1279 19l-77.002 12.0039l-9 -2c-110.667 -32.667 -224.667 -49 -342 -49c-118.667 0 -221.667 22.667 -309 68c-107.333 56 -166.666 138 -177.999 246c-2 15.333 -3 30.666 -3 45.999c0 195.333 154.667 342.666 464 441.999c46.667 14.667 135 39 265 73
c-61.333 32.667 -109.666 76.667 -144.999 132c-39.333 -2.66699 -69.333 -4 -90 -4c-136 0 -259.333 24.333 -370 73c-142 62.667 -219.333 153.667 -232 273c-1.33301 10 -2 19.667 -2 29c0 96 53.333 170 160 222c85.333 41.333 184.666 62 297.999 62
c54.667 0 116.667 -12 186 -36c62 -22 108.667 -44.667 140 -68l-5 -5c-116.667 52.667 -225 79 -325 79c-98.667 0 -179.334 -22.667 -242.001 -68c-69.333 -50 -104 -120 -104 -210c0 -12 0.666992 -24.667 2 -38c18.667 -173.333 211 -261 577 -263
c-2 73.333 5.66699 131.333 23 174c18 45.333 54.333 92.333 109 141c74 66 174.333 117 301 153c111.333 30.667 226.666 46 345.999 46c236 0 360 -56.333 372 -169c12.667 -116 -116.666 -212 -387.999 -288c-156 -44 -345.333 -78 -568 -102
c-0.666992 -28.667 7.33301 -53.334 24 -74.001c18 -22.667 41 -34 69 -34c24.667 0 58.834 3.33301 102.501 10s77.834 10 102.501 10c53.333 0 86 -16.333 98 -49c10 -29.333 -4.66699 -48 -44 -56c-6.66699 -1.33301 -33.334 -2 -80.001 -2
c-14 0 -70.667 8.33301 -170 25c-18 3.33301 -33.333 5 -46 5c-129.333 0 -263.666 -56.667 -402.999 -170c-146.667 -118.667 -220 -241.334 -220 -368.001c0 -74 25 -134.833 75 -182.5s112.333 -71.5 187 -71.5h132c48.667 0 109 8 181 24
c-94 38.667 -141 107.667 -141 207c0 113.333 58.667 214.333 176 303c108.667 82 221.334 123 338.001 123c128 0 192 -55 192 -165c0 -58 -21.333 -118.667 -64 -182c-102.667 -149.333 -244.334 -251 -425.001 -305l-4 -1zM1984 1416c-6 58.667 -64.332 88 -174.999 88
c-138.667 0 -263.667 -23.667 -375 -71c-129.333 -55.333 -224.333 -137.333 -285 -246c-18 -34 -25 -84 -21 -150c463.333 43.333 739.333 138.333 828 285c21.333 36 30.666 67.333 27.999 94zM1590 393.004c14 32 21 65.667 21 101c0 95.333 -43.667 143 -131 143
c-96 0 -193.667 -40 -293 -120c-105.333 -84.667 -158 -175.334 -158 -272.001c0 -93.333 40.667 -155.666 122 -186.999c98.667 28 186.667 70.667 264 128c82.667 60.667 141 129.667 175 207zM1777 1622c100.667 46.667 201.333 150 302 310h-177
c-12.667 -98 -54.667 -198.333 -126 -301z" />
    <glyph glyph-name="Ecircumflex" unicode="&#xca;" horiz-adv-x="1562" 
d="M1259 1533c-116.667 52.667 -224.669 79.0039 -324.002 79.0039s-180.333 -22.667 -243 -68c-68.667 -50 -103 -120 -103 -210c0 -12 0.666992 -24.667 2 -38c18.667 -173.333 211 -261 577 -263c-2 73.333 5.33301 131.333 22 174
c18.667 45.333 55.334 92.333 110.001 141c73.333 66 173.333 117 300 153c111.333 30.667 227 46 347 46c236 0 360 -56.333 372 -169c12 -116 -116.667 -212 -386 -288c-155.333 -43.333 -344 -77 -566 -101c-0.666992 -6 -1 -11.667 -1 -17
c0 -26 8.33301 -47.833 25 -65.5s38 -26.5 64 -26.5c25.333 0 59.666 3.33301 102.999 10s77.666 10 102.999 10c53.333 0 85.666 -16.333 96.999 -49c10.667 -29.333 -3.66602 -48 -42.999 -56c-7.33301 -1.33301 -34 -2 -80 -2c-14.667 0 -71.334 8.33301 -170.001 25
c-18 3.33301 -33.667 5 -47 5c-128.667 0 -263 -56.667 -403 -170c-146 -118.667 -219 -241.334 -219 -368.001c0 -74 25 -134.833 75 -182.5s112.333 -71.5 187 -71.5h131c48.667 0 109.334 8 182.001 24c-94.667 52.667 -142 121.667 -142 207
c0 113.333 58.667 214.333 176 303c109.333 82 222.333 123 339 123c128 0 192 -55 192 -165c0 -58 -21.667 -118.667 -65 -182c-85.333 -124.667 -222.333 -224 -411 -298c35.333 -3.33301 57.333 -4.66602 66 -3.99902c30.667 2 62.667 9 96 21
c-174 -159.333 -256.333 -282.333 -247 -369c8 -75.333 44 -113 108 -113c55.333 0 105.666 26 150.999 78c-41.333 -72.667 -96.666 -109 -165.999 -109c-40.667 0 -76.667 12.667 -108 38s-48 55.666 -50 90.999c-2.66699 54 19.333 109.667 66 167
c36.667 45.333 105.334 109.666 206.001 192.999c-51.333 -8 -99.333 -8.66699 -144 -2c-111.333 -36 -230.666 -54 -357.999 -54c-118.667 0 -221.667 22.667 -309 68c-106.667 56 -166 138 -178 246c-1.33301 15.333 -2 30.666 -2 45.999
c0 195.333 154.333 342.666 463 441.999c47.333 14.667 136 39 266 73c-61.333 32.667 -109.666 76.667 -144.999 132c-39.333 -2.66699 -69.666 -4 -90.999 -4c-136 0 -259 24.333 -369 73c-142.667 62.667 -220.334 153.667 -233.001 273c-0.666992 10 -1 19.667 -1 29
c0 96 53 170 159 222c85.333 41.333 185 62 299 62c54 0 116 -12 186 -36c61.333 -22 108 -44.667 140 -68zM2039 1504c-138.667 0 -263.666 -23.667 -374.999 -71c-129.333 -55.333 -224.333 -137.333 -285 -246c-18.667 -34 -26 -84 -22 -150
c463.333 43.333 739.333 138.333 827.999 285c22 36 31.667 67.333 29 94c-6.66699 58.667 -65 88 -175 88zM1710 637.004c-96 0 -193.668 -39.998 -293.001 -119.998c-105.333 -84.667 -158 -175.334 -158 -272.001c0 -85.333 42 -147.333 126 -186
c98.667 27.333 186 69.666 262 126.999c80.667 60.667 138.334 129.667 173.001 207c14 32 21 65.667 21 101c0 95.333 -43.667 143 -131 143z" />
    <glyph glyph-name="Edieresis" unicode="&#xcb;" horiz-adv-x="1562" 
d="M1279 19l-77.002 12.0039l-9 -2c-110.667 -32.667 -224.667 -49 -342 -49c-118.667 0 -221.667 22.667 -309 68c-107.333 56 -166.666 138 -177.999 246c-2 15.333 -3 30.666 -3 45.999c0 195.333 154.667 342.666 464 441.999c46.667 14.667 135 39 265 73
c-61.333 32.667 -109.666 76.667 -144.999 132c-39.333 -2.66699 -69.333 -4 -90 -4c-136 0 -259.333 24.333 -370 73c-142 62.667 -219.333 153.667 -232 273c-1.33301 10 -2 19.667 -2 29c0 96 53.333 170 160 222c85.333 41.333 184.666 62 297.999 62
c54.667 0 116.667 -12 186 -36c62 -22 108.667 -44.667 140 -68l-5 -5c-116.667 52.667 -225 79 -325 79c-98.667 0 -179.334 -22.667 -242.001 -68c-69.333 -50 -104 -120 -104 -210c0 -12 0.666992 -24.667 2 -38c18.667 -173.333 211 -261 577 -263
c-2 73.333 5.66699 131.333 23 174c18 45.333 54.333 92.333 109 141c74 66 174.333 117 301 153c111.333 30.667 226.666 46 345.999 46c236 0 360 -56.333 372 -169c12.667 -116 -116.666 -212 -387.999 -288c-156 -44 -345.333 -78 -568 -102
c-0.666992 -28.667 7.33301 -53.334 24 -74.001c18 -22.667 41 -34 69 -34c24.667 0 58.834 3.33301 102.501 10s77.834 10 102.501 10c53.333 0 86 -16.333 98 -49c10 -29.333 -4.66699 -48 -44 -56c-6.66699 -1.33301 -33.334 -2 -80.001 -2
c-14 0 -70.667 8.33301 -170 25c-18 3.33301 -33.333 5 -46 5c-129.333 0 -263.666 -56.667 -402.999 -170c-146.667 -118.667 -220 -241.334 -220 -368.001c0 -74 25 -134.833 75 -182.5s112.333 -71.5 187 -71.5h132c48.667 0 109 8 181 24
c-94 38.667 -141 107.667 -141 207c0 113.333 58.667 214.333 176 303c108.667 82 221.334 123 338.001 123c128 0 192 -55 192 -165c0 -58 -21.333 -118.667 -64 -182c-102.667 -149.333 -244.334 -251 -425.001 -305l-4 -1zM1984 1416c-6 58.667 -64.332 88 -174.999 88
c-138.667 0 -263.667 -23.667 -375 -71c-129.333 -55.333 -224.333 -137.333 -285 -246c-18 -34 -25 -84 -21 -150c463.333 43.333 739.333 138.333 828 285c21.333 36 30.666 67.333 27.999 94zM1590 393.004c14 32 21 65.667 21 101c0 95.333 -43.667 143 -131 143
c-96 0 -193.667 -40 -293 -120c-105.333 -84.667 -158 -175.334 -158 -272.001c0 -93.333 40.667 -155.666 122 -186.999c98.667 28 186.667 70.667 264 128c82.667 60.667 141 129.667 175 207zM1582 1796c0 22.667 9.16699 42 27.5 58s40.5 24 66.5 24s48.333 -8 67 -24
s28 -35.333 28 -58s-9.33301 -42 -28 -58s-41 -24 -67 -24s-48.167 8 -66.5 24s-27.5 35.333 -27.5 58zM1917 1791c0 22.667 9.16699 42 27.5 58s40.833 24 67.5 24c26 0 48.167 -8 66.5 -24s27.5 -35.333 27.5 -58s-9.16699 -42 -27.5 -58s-40.5 -24 -66.5 -24
c-26.667 0 -49.167 8 -67.5 24s-27.5 35.333 -27.5 58z" />
    <glyph glyph-name="Igrave" unicode="&#xcc;" horiz-adv-x="1430" 
d="M643 -3c-121.333 0 -223 30.6689 -305 92.002c-90.667 68 -136 160.667 -136 278c0 128 53 241 159 339c103.333 96 219.666 144 348.999 144c76.667 0 143.667 -20.333 201 -61c63.333 -45.333 95 -105 95 -179c0 -70 -24.167 -129.5 -72.5 -178.5
s-107.5 -73.5 -177.5 -73.5c-41.333 0 -77.333 13.667 -108 41s-46 61.666 -46 102.999c0 60 35.667 115 107 165l12 -10c-32 -36.667 -50.333 -58.667 -55 -66c-16.667 -25.333 -25 -52.333 -25 -81c0 -33.333 11 -60.666 33 -81.999s50 -32 84 -32
c56.667 0 105.5 20.5 146.5 61.5s61.5 89.833 61.5 146.5c0 56 -20 102.833 -60 140.5s-88 56.5 -144 56.5c-116 0 -225.833 -51.333 -329.5 -154s-155.5 -211.667 -155.5 -327c0 -96 36 -170 108 -222c63.333 -45.333 145 -68 245 -68c136 0 271.667 72.667 407 218
c91.333 97.333 200 252 326 464c139.333 233.333 229.333 375.666 270 426.999c88 110 153.667 187 197 231c62.667 64.667 140.334 129.667 233.001 195l-472 -103c-235.333 -56 -397 -150.333 -485 -283c-46.667 -71.333 -70 -148 -70 -230
c0 -98.667 48.667 -148 146 -148c60 0 117.667 26.333 173 79l12 -11c-20 -24 -49.667 -46.667 -89 -68c-42 -23.333 -77.333 -35 -106 -35c-72.667 0 -129 21.667 -169 65c-38.667 41.333 -58 98.666 -58 171.999c0 139.333 59 252 177 338
c90 65.333 220.333 117.333 391 156l396 71c36 6.66699 83.667 19.667 143 39c68.667 23.333 116 38 142 44l16 -12c-20.667 -18.667 -48.334 -40.667 -83.001 -66c-55.333 -40.667 -127.333 -125.667 -216 -255c-136 -198.667 -283.333 -443 -442 -733
c-83.333 -152 -198.333 -285 -345 -399c-165.333 -126 -325.666 -189 -480.999 -189zM2006 1623c-100.667 46.667 -201.333 150 -302 310h177c12.667 -98 54.667 -198.333 126 -301z" />
    <glyph glyph-name="Iacute" unicode="&#xcd;" horiz-adv-x="1430" 
d="M643 -3c-121.333 0 -223 30.6689 -305 92.002c-90.667 68 -136 160.667 -136 278c0 128 53 241 159 339c103.333 96 219.666 144 348.999 144c76.667 0 143.667 -20.333 201 -61c63.333 -45.333 95 -105 95 -179c0 -70 -24.167 -129.5 -72.5 -178.5
s-107.5 -73.5 -177.5 -73.5c-41.333 0 -77.333 13.667 -108 41s-46 61.666 -46 102.999c0 60 35.667 115 107 165l12 -10c-32 -36.667 -50.333 -58.667 -55 -66c-16.667 -25.333 -25 -52.333 -25 -81c0 -33.333 11 -60.666 33 -81.999s50 -32 84 -32
c56.667 0 105.5 20.5 146.5 61.5s61.5 89.833 61.5 146.5c0 56 -20 102.833 -60 140.5s-88 56.5 -144 56.5c-116 0 -225.833 -51.333 -329.5 -154s-155.5 -211.667 -155.5 -327c0 -96 36 -170 108 -222c63.333 -45.333 145 -68 245 -68c136 0 271.667 72.667 407 218
c91.333 97.333 200 252 326 464c139.333 233.333 229.333 375.666 270 426.999c88 110 153.667 187 197 231c62.667 64.667 140.334 129.667 233.001 195l-472 -103c-235.333 -56 -397 -150.333 -485 -283c-46.667 -71.333 -70 -148 -70 -230
c0 -98.667 48.667 -148 146 -148c60 0 117.667 26.333 173 79l12 -11c-20 -24 -49.667 -46.667 -89 -68c-42 -23.333 -77.333 -35 -106 -35c-72.667 0 -129 21.667 -169 65c-38.667 41.333 -58 98.666 -58 171.999c0 139.333 59 252 177 338
c90 65.333 220.333 117.333 391 156l396 71c36 6.66699 83.667 19.667 143 39c68.667 23.333 116 38 142 44l16 -12c-20.667 -18.667 -48.334 -40.667 -83.001 -66c-55.333 -40.667 -127.333 -125.667 -216 -255c-136 -198.667 -283.333 -443 -442 -733
c-83.333 -152 -198.333 -285 -345 -399c-165.333 -126 -325.666 -189 -480.999 -189zM1886 1622c100.667 46.667 201.333 150 302 310h-177c-12.667 -98 -54.667 -198.333 -126 -301z" />
    <glyph glyph-name="Icircumflex" unicode="&#xce;" horiz-adv-x="1430" 
d="M643 -3c-121.333 0 -223 30.6689 -305 92.002c-90.667 68 -136 160.667 -136 278c0 128 53 241 159 339c103.333 96 219.666 144 348.999 144c76.667 0 143.667 -20.333 201 -61c63.333 -45.333 95 -105 95 -179c0 -70 -24.167 -129.5 -72.5 -178.5
s-107.5 -73.5 -177.5 -73.5c-41.333 0 -77.333 13.667 -108 41s-46 61.666 -46 102.999c0 60 35.667 115 107 165l12 -10c-32 -36.667 -50.333 -58.667 -55 -66c-16.667 -25.333 -25 -52.333 -25 -81c0 -33.333 11 -60.666 33 -81.999s50 -32 84 -32
c56.667 0 105.5 20.5 146.5 61.5s61.5 89.833 61.5 146.5c0 56 -20 102.833 -60 140.5s-88 56.5 -144 56.5c-116 0 -225.833 -51.333 -329.5 -154s-155.5 -211.667 -155.5 -327c0 -96 36 -170 108 -222c63.333 -45.333 145 -68 245 -68c136 0 271.667 72.667 407 218
c91.333 97.333 200 252 326 464c139.333 233.333 229.333 375.666 270 426.999c88 110 153.667 187 197 231c62.667 64.667 140.334 129.667 233.001 195l-472 -103c-235.333 -56 -397 -150.333 -485 -283c-46.667 -71.333 -70 -148 -70 -230
c0 -98.667 48.667 -148 146 -148c60 0 117.667 26.333 173 79l12 -11c-20 -24 -49.667 -46.667 -89 -68c-42 -23.333 -77.333 -35 -106 -35c-72.667 0 -129 21.667 -169 65c-38.667 41.333 -58 98.666 -58 171.999c0 139.333 59 252 177 338
c90 65.333 220.333 117.333 391 156l396 71c36 6.66699 83.667 19.667 143 39c68.667 23.333 116 38 142 44l16 -12c-20.667 -18.667 -48.334 -40.667 -83.001 -66c-55.333 -40.667 -127.333 -125.667 -216 -255c-136 -198.667 -283.333 -443 -442 -733
c-83.333 -152 -198.333 -285 -345 -399c-165.333 -126 -325.666 -189 -480.999 -189zM2029 1920h101l160 -271h-52l-163 181l-297 -181h-66z" />
    <glyph glyph-name="Idieresis" unicode="&#xcf;" horiz-adv-x="1430" 
d="M643 -3c-121.333 0 -223 30.6689 -305 92.002c-90.667 68 -136 160.667 -136 278c0 128 53 241 159 339c103.333 96 219.666 144 348.999 144c76.667 0 143.667 -20.333 201 -61c63.333 -45.333 95 -105 95 -179c0 -70 -24.167 -129.5 -72.5 -178.5
s-107.5 -73.5 -177.5 -73.5c-41.333 0 -77.333 13.667 -108 41s-46 61.666 -46 102.999c0 60 35.667 115 107 165l12 -10c-32 -36.667 -50.333 -58.667 -55 -66c-16.667 -25.333 -25 -52.333 -25 -81c0 -33.333 11 -60.666 33 -81.999s50 -32 84 -32
c56.667 0 105.5 20.5 146.5 61.5s61.5 89.833 61.5 146.5c0 56 -20 102.833 -60 140.5s-88 56.5 -144 56.5c-116 0 -225.833 -51.333 -329.5 -154s-155.5 -211.667 -155.5 -327c0 -96 36 -170 108 -222c63.333 -45.333 145 -68 245 -68c136 0 271.667 72.667 407 218
c91.333 97.333 200 252 326 464c139.333 233.333 229.333 375.666 270 426.999c88 110 153.667 187 197 231c62.667 64.667 140.334 129.667 233.001 195l-472 -103c-235.333 -56 -397 -150.333 -485 -283c-46.667 -71.333 -70 -148 -70 -230
c0 -98.667 48.667 -148 146 -148c60 0 117.667 26.333 173 79l12 -11c-20 -24 -49.667 -46.667 -89 -68c-42 -23.333 -77.333 -35 -106 -35c-72.667 0 -129 21.667 -169 65c-38.667 41.333 -58 98.666 -58 171.999c0 139.333 59 252 177 338
c90 65.333 220.333 117.333 391 156l396 71c36 6.66699 83.667 19.667 143 39c68.667 23.333 116 38 142 44l16 -12c-20.667 -18.667 -48.334 -40.667 -83.001 -66c-55.333 -40.667 -127.333 -125.667 -216 -255c-136 -198.667 -283.333 -443 -442 -733
c-83.333 -152 -198.333 -285 -345 -399c-165.333 -126 -325.666 -189 -480.999 -189zM1790 1834c0 22.667 9.16699 42 27.5 58s40.5 24 66.5 24s48.333 -8 67 -24s28 -35.333 28 -58s-9.33301 -42 -28 -58s-41 -24 -67 -24s-48.167 8 -66.5 24s-27.5 35.333 -27.5 58z
M2125 1829c0 22.667 9.16699 42 27.5 58s40.833 24 67.5 24c26 0 48.167 -8 66.5 -24s27.5 -35.333 27.5 -58s-9.16699 -42 -27.5 -58s-40.5 -24 -66.5 -24c-26.667 0 -49.167 8 -67.5 24s-27.5 35.333 -27.5 58z" />
    <glyph glyph-name="Eth" unicode="&#xd0;" horiz-adv-x="2943" 
d="M2262 797c82.667 122 149.003 215.333 199.003 280c118 152.667 246.333 278.334 385 377.001c-96 30 -205 45 -327 45c-158 0 -303.667 -23.333 -437 -70c-144 -50.667 -243.333 -118.667 -298 -204c-26.667 -42 -40 -83 -40 -123c0 -86.667 53 -130 159 -130
c119.333 0 271.333 110.667 455.999 332l7 -8c-177.333 -246 -341.333 -369 -492 -369c-64 0 -117.167 18.333 -159.5 55s-64.5 85 -66.5 145c-3.33301 100.667 60.667 188.667 192 264c96.667 56 205.667 95.333 327 118s237 34 347 34c138.667 0 270 -18 394 -54
c40 20.667 122.667 54 248 100l6 -6l8 -9c-113.333 -60.667 -180.666 -99 -202 -115c26 -10.667 53.333 -24.334 82 -41.001c160.667 -94 251.334 -235.333 272 -424c0.666992 -8 1 -16.667 1 -26c0 -90 -40 -214.667 -120 -374c-66 -131.333 -132 -238.666 -198 -321.999
c-93.333 -118 -222.333 -224.667 -387 -320c-180.667 -105.333 -343.334 -158 -488 -158c-114.667 0 -191.667 30.333 -231 91c-16 24.667 -29.667 51.667 -41 81c-132 -136.667 -260.333 -237 -385 -301c-164 -83.333 -352.667 -125 -566 -125
c-201.333 0 -372 57.667 -512 173c-146 120.667 -219 274 -219 460c0 232 87.667 430.667 263 596c173.333 163.333 380.666 245 621.999 245c142 0 262 -36.333 360 -109c105.333 -78 158 -180.667 158 -308c0 -160.667 -120.667 -327 -362 -499l-15 10
c62.667 49.333 100.667 80 114 92c42 36.667 76 71.667 102 105c58.667 76.667 88 172.667 88 288c0 124.667 -46.333 222.667 -139 294c-85.333 64.667 -194 97 -326 97c-262 0 -456.333 -84.333 -583 -253c-108 -142.667 -160 -332.334 -156 -569.001
c2.66699 -174.667 77 -320.667 223 -438c126 -102 256.667 -153 392 -153c158.667 0 307 46.333 445 139c107.333 72 228.333 188 363 348c111.333 132 257.666 330.333 438.999 595c14 19.333 29.667 42.333 47 69h-265l-5 9l17 60l11 6h293zM2700 789l-14.999 -62.001
l-7 -5h-248c-166 -265.333 -327.333 -485.666 -484 -660.999l-57 -61c32.667 -109.333 109 -164 229 -164c47.333 0 103.666 18.667 169 56l152 99c146 92 305.667 261 479 507c190.667 270.667 278 480.667 262 630c-8.66699 79.333 -33.334 141.333 -74 186
c-32.667 35.333 -92.334 74.666 -179.001 117.999c-96 -83.333 -197 -213.666 -303 -390.999l-147 -244h216z" />
    <glyph glyph-name="Ntilde" unicode="&#xd1;" horiz-adv-x="2220" 
d="M3357 1578c-23.333 12 -48.002 17.666 -74.002 16.999h-11c-57.333 -6.66699 -149 -67.334 -275 -182.001c-85.333 -78.667 -167 -162.667 -245 -252c-308.667 -352 -610.667 -754.333 -906 -1207l-30 20c31.333 118.667 62.333 332.334 93 641.001
c26 259.333 83 501 171 725c-104 -108 -256 -304.333 -456 -589c-184.667 -264 -340.334 -454.667 -467.001 -572c-73.333 -68.667 -149.666 -117 -228.999 -145c-72.667 -24.667 -161.667 -37 -267 -37c-116 0 -213.333 34.667 -292 104
c-82.667 72.667 -124 166.334 -124 281.001c0 134 55.333 249 166 345c105.333 92 226 138 362 138c78 0 144 -18.667 198 -56c61.333 -42.667 92 -101.334 92 -176.001c0 -67.333 -24.833 -127 -74.5 -179s-108.167 -78 -175.5 -78c-43.333 0 -80.666 13.333 -111.999 40
c-34 28.667 -51 64.334 -51 107.001c0 66.667 31.333 116.334 94 149.001l8 -8c-38.667 -33.333 -58 -78 -58 -134c0 -37.333 9.66699 -68.333 29 -93c21.333 -27.333 50 -41 86 -41c56 0 106.333 25 151 75c42.667 48.667 64 101.667 64 159c0 61.333 -22.333 110 -67 146
c-41.333 32.667 -93.333 49 -156 49c-111.333 0 -218.833 -55 -322.5 -165s-155.5 -221 -155.5 -333c0 -190 131 -285 393 -285c124.667 0 262.334 78 413.001 234c122 127.333 266.667 296.666 434 507.999l416 523c148.667 178.667 254.334 283 317 313l37 -12
c-73.333 -94 -130.333 -249.333 -171 -466l-73 -507c-8 -52 -38.333 -179 -91 -381l333 494c178 260.667 331 461.667 459 603c177.333 195.333 319.666 293 427 293c57.333 0 107.666 -14 151 -42zM2635 1616c100.667 46.667 201.334 150 302 310h-177
c-12.667 -98 -54.667 -198.333 -126 -301z" />
    <glyph glyph-name="Ograve" unicode="&#xd2;" horiz-adv-x="1477" 
d="M706 -29c-133.333 0 -241.666 37.334 -324.999 112.001c-87.333 78.667 -131 183.667 -131 315c0 196.667 93 401 279 613c164.667 187.333 348 327 550 419c68.667 31.333 126 51 172 59c15.333 1.33301 38.666 4.66602 69.999 9.99902l58 24c62 22 122 33 180 33
c99.333 0 174 -39 224 -117c42.667 -65.333 64 -150.333 64 -255c0 -162 -61 -340.333 -183 -535c-118 -188.667 -263.333 -347 -436 -475c-184.667 -135.333 -358.667 -203 -522 -203zM1522 1512c-127.333 0 -260.001 -93.333 -398.001 -280
c-130.667 -176 -196 -329 -196 -459c0 -46 9.33301 -85.667 28 -119c23.333 -40 56.333 -60 99 -60c38.667 0 76.334 11.333 113.001 34l7 -9c-38.667 -32 -80.667 -48 -126 -48c-60 0 -106.667 26 -140 78c-28.667 44.667 -43 98 -43 160c0 153.333 78.667 317.333 236 492
l-16 17c-170.667 -126 -321 -275.333 -451 -448c-160 -211.333 -240 -401.333 -240 -570c0 -110.667 31 -189.667 93 -237c54 -41.333 137.667 -62 251 -62c33.333 0 83.666 12 150.999 36c62.667 22.667 110.334 45 143.001 67c158 102 319.333 273.667 484 515
c176 258 264 471.333 264 640s-86.333 253 -259 253zM1702 1618c-100.667 46.667 -201.333 150 -302 310h177c12.667 -98 54.667 -198.333 126 -301z" />
    <glyph glyph-name="Oacute" unicode="&#xd3;" horiz-adv-x="1477" 
d="M706 -29c-133.333 0 -241.666 37.334 -324.999 112.001c-87.333 78.667 -131 183.667 -131 315c0 196.667 93 401 279 613c164.667 187.333 348 327 550 419c68.667 31.333 126 51 172 59c15.333 1.33301 38.666 4.66602 69.999 9.99902l58 24c62 22 122 33 180 33
c99.333 0 174 -39 224 -117c42.667 -65.333 64 -150.333 64 -255c0 -162 -61 -340.333 -183 -535c-118 -188.667 -263.333 -347 -436 -475c-184.667 -135.333 -358.667 -203 -522 -203zM1522 1512c-127.333 0 -260.001 -93.333 -398.001 -280
c-130.667 -176 -196 -329 -196 -459c0 -46 9.33301 -85.667 28 -119c23.333 -40 56.333 -60 99 -60c38.667 0 76.334 11.333 113.001 34l7 -9c-38.667 -32 -80.667 -48 -126 -48c-60 0 -106.667 26 -140 78c-28.667 44.667 -43 98 -43 160c0 153.333 78.667 317.333 236 492
l-16 17c-170.667 -126 -321 -275.333 -451 -448c-160 -211.333 -240 -401.333 -240 -570c0 -110.667 31 -189.667 93 -237c54 -41.333 137.667 -62 251 -62c33.333 0 83.666 12 150.999 36c62.667 22.667 110.334 45 143.001 67c158 102 319.333 273.667 484 515
c176 258 264 471.333 264 640s-86.333 253 -259 253zM1530 1616c100.667 46.667 201.333 150 302 310h-177c-12.667 -98 -54.667 -198.333 -126 -301z" />
    <glyph glyph-name="Ocircumflex" unicode="&#xd4;" horiz-adv-x="1477" 
d="M706 -29c-133.333 0 -241.666 37.334 -324.999 112.001c-87.333 78.667 -131 183.667 -131 315c0 196.667 93 401 279 613c164.667 187.333 348 327 550 419c68.667 31.333 126 51 172 59c15.333 1.33301 38.666 4.66602 69.999 9.99902l58 24c62 22 122 33 180 33
c99.333 0 174 -39 224 -117c42.667 -65.333 64 -150.333 64 -255c0 -162 -61 -340.333 -183 -535c-118 -188.667 -263.333 -347 -436 -475c-184.667 -135.333 -358.667 -203 -522 -203zM1522 1512c-127.333 0 -260.001 -93.333 -398.001 -280
c-130.667 -176 -196 -329 -196 -459c0 -46 9.33301 -85.667 28 -119c23.333 -40 56.333 -60 99 -60c38.667 0 76.334 11.333 113.001 34l7 -9c-38.667 -32 -80.667 -48 -126 -48c-60 0 -106.667 26 -140 78c-28.667 44.667 -43 98 -43 160c0 153.333 78.667 317.333 236 492
l-16 17c-170.667 -126 -321 -275.333 -451 -448c-160 -211.333 -240 -401.333 -240 -570c0 -110.667 31 -189.667 93 -237c54 -41.333 137.667 -62 251 -62c33.333 0 83.666 12 150.999 36c62.667 22.667 110.334 45 143.001 67c158 102 319.333 273.667 484 515
c176 258 264 471.333 264 640s-86.333 253 -259 253zM1654 1932h101l160 -271h-52l-163 181l-297 -181h-66z" />
    <glyph glyph-name="Otilde" unicode="&#xd5;" horiz-adv-x="1477" 
d="M706 -29c-133.333 0 -241.666 37.334 -324.999 112.001c-87.333 78.667 -131 183.667 -131 315c0 196.667 93 401 279 613c164.667 187.333 348 327 550 419c68.667 31.333 126 51 172 59c15.333 1.33301 38.666 4.66602 69.999 9.99902l58 24c62 22 122 33 180 33
c99.333 0 174 -39 224 -117c42.667 -65.333 64 -150.333 64 -255c0 -162 -61 -340.333 -183 -535c-118 -188.667 -263.333 -347 -436 -475c-184.667 -135.333 -358.667 -203 -522 -203zM1522 1512c-127.333 0 -260.001 -93.333 -398.001 -280
c-130.667 -176 -196 -329 -196 -459c0 -46 9.33301 -85.667 28 -119c23.333 -40 56.333 -60 99 -60c38.667 0 76.334 11.333 113.001 34l7 -9c-38.667 -32 -80.667 -48 -126 -48c-60 0 -106.667 26 -140 78c-28.667 44.667 -43 98 -43 160c0 153.333 78.667 317.333 236 492
l-16 17c-170.667 -126 -321 -275.333 -451 -448c-160 -211.333 -240 -401.333 -240 -570c0 -110.667 31 -189.667 93 -237c54 -41.333 137.667 -62 251 -62c33.333 0 83.666 12 150.999 36c62.667 22.667 110.334 45 143.001 67c158 102 319.333 273.667 484 515
c176 258 264 471.333 264 640s-86.333 253 -259 253zM1895 1939h45c-29.333 -122 -86 -183 -170 -183c-14 0 -32.333 3 -55 9l-143 38c-27.333 7.33301 -47.333 11 -60 11c-50 0 -81.667 -26.667 -95 -80h-47c31.333 117.333 87.333 176 168 176
c23.333 0 47.333 -3.33301 72 -10l143 -39c14.667 -4 30.667 -6 48 -6c48.667 0 80 28 94 84z" />
    <glyph glyph-name="Odieresis" unicode="&#xd6;" horiz-adv-x="1477" 
d="M706 -29c-133.333 0 -241.666 37.334 -324.999 112.001c-87.333 78.667 -131 183.667 -131 315c0 196.667 93 401 279 613c164.667 187.333 348 327 550 419c68.667 31.333 126 51 172 59c15.333 1.33301 38.666 4.66602 69.999 9.99902l58 24c62 22 122 33 180 33
c99.333 0 174 -39 224 -117c42.667 -65.333 64 -150.333 64 -255c0 -162 -61 -340.333 -183 -535c-118 -188.667 -263.333 -347 -436 -475c-184.667 -135.333 -358.667 -203 -522 -203zM1522 1512c-127.333 0 -260.001 -93.333 -398.001 -280
c-130.667 -176 -196 -329 -196 -459c0 -46 9.33301 -85.667 28 -119c23.333 -40 56.333 -60 99 -60c38.667 0 76.334 11.333 113.001 34l7 -9c-38.667 -32 -80.667 -48 -126 -48c-60 0 -106.667 26 -140 78c-28.667 44.667 -43 98 -43 160c0 153.333 78.667 317.333 236 492
l-16 17c-170.667 -126 -321 -275.333 -451 -448c-160 -211.333 -240 -401.333 -240 -570c0 -110.667 31 -189.667 93 -237c54 -41.333 137.667 -62 251 -62c33.333 0 83.666 12 150.999 36c62.667 22.667 110.334 45 143.001 67c158 102 319.333 273.667 484 515
c176 258 264 471.333 264 640s-86.333 253 -259 253zM1306 1818c0 22.667 9.16699 42 27.5 58s40.5 24 66.5 24s48.333 -8 67 -24s28 -35.333 28 -58s-9.33301 -42 -28 -58s-41 -24 -67 -24s-48.167 8 -66.5 24s-27.5 35.333 -27.5 58zM1641 1813
c0 22.667 9.16699 42 27.5 58s40.833 24 67.5 24c26 0 48.167 -8 66.5 -24s27.5 -35.333 27.5 -58s-9.16699 -42 -27.5 -58s-40.5 -24 -66.5 -24c-26.667 0 -49.167 8 -67.5 24s-27.5 35.333 -27.5 58z" />
    <glyph glyph-name="multiply" unicode="&#xd7;" horiz-adv-x="1155" 
d="M165 328l353 353l-352 352l58 58l352 -352l352 352l56 -57l-352 -352l354 -354l-57 -58l-354 354l-353 -353z" />
    <glyph glyph-name="Oslash" unicode="&#xd8;" horiz-adv-x="1518" 
d="M1025 742l819 659c-41.333 74 -117 111 -227 111c-127.333 0 -260 -93.333 -398 -280c-130.667 -176 -196 -329 -196 -459c0 -10.667 0.666992 -21 2 -31zM490 300l488 404c-11.333 32.667 -17 67.667 -17 105c0 153.333 79 317.333 237 492l-16 17
c-171.333 -126 -322 -275.333 -452 -448c-160 -211.333 -240 -401.333 -240 -570zM1869 1333c-133.333 -119.333 -407.67 -342.001 -823.003 -668.001c22.667 -47.333 57.334 -71 104.001 -71c38.667 0 76.334 11.333 113.001 34l7 -9c-38.667 -32 -80.667 -48 -126 -48
c-55.333 0 -99.666 22.333 -132.999 67c-224 -176 -395.667 -314.667 -515 -416c24 -147.333 136.667 -221 338 -221c34 0 84.333 12 151 36c62.667 22.667 110.667 45 144 67c158 102 319 273.667 483 515c176 258 264 471.333 264 640c0 26.667 -2.33301 51.334 -7 74.001
zM2023 1481c-32.667 -34 -69.998 -70.3311 -111.998 -108.998c20.667 -54.667 31 -117.334 31 -188.001c0 -162 -61 -340.333 -183 -535c-118 -188.667 -263.333 -347 -436 -475c-184.667 -135.333 -358.667 -203 -522 -203c-174.667 0 -303.334 60.667 -386.001 182
c-84 -74 -155.333 -140.333 -214 -199l-59 46l242 209c-26 56.667 -39 119.667 -39 189c0 196.667 93 401 279 613c164.667 187.333 348 327 550 419c68.667 31.333 126 51 172 59c15.333 1.33301 38.666 4.66602 69.999 9.99902l58 24c62 22 122 33 180 33
c102 0 178 -41 228 -123c46.667 40 81.667 72 105 96z" />
    <glyph glyph-name="Ugrave" unicode="&#xd9;" horiz-adv-x="2265" 
d="M1592 68c0 -72 31.3291 -108 93.9961 -108c48 0 102.333 32.667 163 98l14 -10c-65.333 -83.333 -126.666 -125 -183.999 -125c-62 0 -110.667 26 -146 78c-30.667 46 -46 101.333 -46 166c0 56 14.333 121.667 43 197l79 188
c-187.333 -200.667 -291.666 -311.334 -312.999 -332.001c-154.667 -146.667 -276.667 -220 -366 -220c-67.333 0 -120.333 24.667 -159 74c-35.333 45.333 -53 102.333 -53 171c0 280 279.333 646.667 838 1100c25.333 20.667 67.333 59 126 115
c-103.333 -52.667 -178.666 -96.334 -225.999 -131.001l-417 -332c-180 -130.667 -338.667 -196 -476 -196c-80.667 0 -148.167 27.333 -202.5 82s-81.5 122.334 -81.5 203.001c0 121.333 58.667 216 176 284c97.333 56 210.666 84 339.999 84c51.333 0 109 -14.667 173 -44
c60.667 -28 107.334 -60 140.001 -96l-9 -2c-84 70.667 -186.667 106 -308 106c-105.333 0 -201.666 -36 -288.999 -108c-92 -76 -138 -165.667 -138 -269c0 -64 19 -114 57 -150s89.333 -54 154 -54c104.667 0 242 59.333 412 178l425 330c153.333 118 261.333 177 324 177
c12.667 0 25.334 -6.66699 38.001 -20c-14 -33.333 -52.333 -82.333 -115 -147l-139 -138c-131.333 -131.333 -265 -295.666 -401 -492.999c-170 -246.667 -255 -430 -255 -550c0 -80 31 -120 93 -120c15.333 0 31.666 2 48.999 6c86.667 20.667 269.667 185.667 549 495
l530 616c160.667 184.667 304.667 332 432 442l57 -35l-352 -432c-62 -74 -150 -188.667 -264 -344c-126.667 -200 -201 -319.667 -223 -359c-95.333 -169.333 -143 -294.333 -143 -375zM2268 1605c-100.667 46.667 -201.334 150 -302 310h177
c12.667 -98 54.667 -198.333 126 -301z" />
    <glyph glyph-name="Uacute" unicode="&#xda;" horiz-adv-x="2265" 
d="M1592 68c0 -72 31.3291 -108 93.9961 -108c48 0 102.333 32.667 163 98l14 -10c-65.333 -83.333 -126.666 -125 -183.999 -125c-62 0 -110.667 26 -146 78c-30.667 46 -46 101.333 -46 166c0 56 14.333 121.667 43 197l79 188
c-187.333 -200.667 -291.666 -311.334 -312.999 -332.001c-154.667 -146.667 -276.667 -220 -366 -220c-67.333 0 -120.333 24.667 -159 74c-35.333 45.333 -53 102.333 -53 171c0 280 279.333 646.667 838 1100c25.333 20.667 67.333 59 126 115
c-103.333 -52.667 -178.666 -96.334 -225.999 -131.001l-417 -332c-180 -130.667 -338.667 -196 -476 -196c-80.667 0 -148.167 27.333 -202.5 82s-81.5 122.334 -81.5 203.001c0 121.333 58.667 216 176 284c97.333 56 210.666 84 339.999 84c51.333 0 109 -14.667 173 -44
c60.667 -28 107.334 -60 140.001 -96l-9 -2c-84 70.667 -186.667 106 -308 106c-105.333 0 -201.666 -36 -288.999 -108c-92 -76 -138 -165.667 -138 -269c0 -64 19 -114 57 -150s89.333 -54 154 -54c104.667 0 242 59.333 412 178l425 330c153.333 118 261.333 177 324 177
c12.667 0 25.334 -6.66699 38.001 -20c-14 -33.333 -52.333 -82.333 -115 -147l-139 -138c-131.333 -131.333 -265 -295.666 -401 -492.999c-170 -246.667 -255 -430 -255 -550c0 -80 31 -120 93 -120c15.333 0 31.666 2 48.999 6c86.667 20.667 269.667 185.667 549 495
l530 616c160.667 184.667 304.667 332 432 442l57 -35l-352 -432c-62 -74 -150 -188.667 -264 -344c-126.667 -200 -201 -319.667 -223 -359c-95.333 -169.333 -143 -294.333 -143 -375zM2056 1607c100.667 46.667 201.334 150 302 310h-177
c-12.667 -98 -54.667 -198.333 -126 -301z" />
    <glyph glyph-name="Ucircumflex" unicode="&#xdb;" horiz-adv-x="2265" 
d="M1592 68c0 -72 31.3291 -108 93.9961 -108c48 0 102.333 32.667 163 98l14 -10c-65.333 -83.333 -126.666 -125 -183.999 -125c-62 0 -110.667 26 -146 78c-30.667 46 -46 101.333 -46 166c0 56 14.333 121.667 43 197l79 188
c-187.333 -200.667 -291.666 -311.334 -312.999 -332.001c-154.667 -146.667 -276.667 -220 -366 -220c-67.333 0 -120.333 24.667 -159 74c-35.333 45.333 -53 102.333 -53 171c0 280 279.333 646.667 838 1100c25.333 20.667 67.333 59 126 115
c-103.333 -52.667 -178.666 -96.334 -225.999 -131.001l-417 -332c-180 -130.667 -338.667 -196 -476 -196c-80.667 0 -148.167 27.333 -202.5 82s-81.5 122.334 -81.5 203.001c0 121.333 58.667 216 176 284c97.333 56 210.666 84 339.999 84c51.333 0 109 -14.667 173 -44
c60.667 -28 107.334 -60 140.001 -96l-9 -2c-84 70.667 -186.667 106 -308 106c-105.333 0 -201.666 -36 -288.999 -108c-92 -76 -138 -165.667 -138 -269c0 -64 19 -114 57 -150s89.333 -54 154 -54c104.667 0 242 59.333 412 178l425 330c153.333 118 261.333 177 324 177
c12.667 0 25.334 -6.66699 38.001 -20c-14 -33.333 -52.333 -82.333 -115 -147l-139 -138c-131.333 -131.333 -265 -295.666 -401 -492.999c-170 -246.667 -255 -430 -255 -550c0 -80 31 -120 93 -120c15.333 0 31.666 2 48.999 6c86.667 20.667 269.667 185.667 549 495
l530 616c160.667 184.667 304.667 332 432 442l57 -35l-352 -432c-62 -74 -150 -188.667 -264 -344c-126.667 -200 -201 -319.667 -223 -359c-95.333 -169.333 -143 -294.333 -143 -375zM2156 1940h101l160 -271h-52l-163 181l-297 -181h-66z" />
    <glyph glyph-name="Udieresis" unicode="&#xdc;" horiz-adv-x="2265" 
d="M1592 68c0 -72 31.3291 -108 93.9961 -108c48 0 102.333 32.667 163 98l14 -10c-65.333 -83.333 -126.666 -125 -183.999 -125c-62 0 -110.667 26 -146 78c-30.667 46 -46 101.333 -46 166c0 56 14.333 121.667 43 197l79 188
c-187.333 -200.667 -291.666 -311.334 -312.999 -332.001c-154.667 -146.667 -276.667 -220 -366 -220c-67.333 0 -120.333 24.667 -159 74c-35.333 45.333 -53 102.333 -53 171c0 280 279.333 646.667 838 1100c25.333 20.667 67.333 59 126 115
c-103.333 -52.667 -178.666 -96.334 -225.999 -131.001l-417 -332c-180 -130.667 -338.667 -196 -476 -196c-80.667 0 -148.167 27.333 -202.5 82s-81.5 122.334 -81.5 203.001c0 121.333 58.667 216 176 284c97.333 56 210.666 84 339.999 84c51.333 0 109 -14.667 173 -44
c60.667 -28 107.334 -60 140.001 -96l-9 -2c-84 70.667 -186.667 106 -308 106c-105.333 0 -201.666 -36 -288.999 -108c-92 -76 -138 -165.667 -138 -269c0 -64 19 -114 57 -150s89.333 -54 154 -54c104.667 0 242 59.333 412 178l425 330c153.333 118 261.333 177 324 177
c12.667 0 25.334 -6.66699 38.001 -20c-14 -33.333 -52.333 -82.333 -115 -147l-139 -138c-131.333 -131.333 -265 -295.666 -401 -492.999c-170 -246.667 -255 -430 -255 -550c0 -80 31 -120 93 -120c15.333 0 31.666 2 48.999 6c86.667 20.667 269.667 185.667 549 495
l530 616c160.667 184.667 304.667 332 432 442l57 -35l-352 -432c-62 -74 -150 -188.667 -264 -344c-126.667 -200 -201 -319.667 -223 -359c-95.333 -169.333 -143 -294.333 -143 -375zM1926 1828c0 22.667 9.16699 42 27.5 58s40.5 24 66.5 24s48.333 -8 67 -24
s28 -35.333 28 -58s-9.33301 -42 -28 -58s-41 -24 -67 -24s-48.167 8 -66.5 24s-27.5 35.333 -27.5 58zM2261 1823c0 22.667 9.16699 42 27.5 58s40.833 24 67.5 24c26 0 48.167 -8 66.5 -24s27.5 -35.333 27.5 -58s-9.16699 -42 -27.5 -58s-40.5 -24 -66.5 -24
c-26.667 0 -49.167 8 -67.5 24s-27.5 35.333 -27.5 58z" />
    <glyph glyph-name="Yacute" unicode="&#xdd;" horiz-adv-x="2134" 
d="M686 -518c-134.667 0 -248.334 34.333 -341.001 103c-102.667 76 -154 179 -154 309c0 124.667 52.667 230.667 158 318c100 82.667 213.667 124 341 124c80.667 0 152.334 -18.667 215.001 -56c74.667 -44.667 112 -104.334 112 -179.001
c0 -60.667 -28.333 -112.334 -85 -155.001c-52.667 -40.667 -110.334 -61 -173.001 -61c-90.667 0 -148.667 41.667 -174 125l20 3c22.667 -60.667 73.667 -91 153 -91c54 0 102.333 16.333 145 49c46.667 34.667 70 78.334 70 131.001c0 60.667 -26.333 107.667 -79 141
c-45.333 28.667 -100 43 -164 43c-121.333 0 -229.666 -45.333 -324.999 -136s-143 -196 -143 -316c0 -108.667 44.667 -191 134 -247c74 -46.667 169 -70 285 -70c136 0 272 37.333 408 112c131.333 72 238.666 164.667 321.999 278c11.333 16 84.333 133 219 351l432 694
l-382 -385c-188 -173.333 -332 -260 -432 -260c-76.667 0 -139.667 29.333 -189 88c-46 54.667 -69 121.334 -69 200.001c0 178.667 125 392.667 375 642l-16 18c-140 -118 -252.667 -203 -338 -255c-144 -88 -275 -132 -393 -132c-89.333 0 -162.333 26.333 -219 79
c-58.667 54 -88 125.333 -88 214c0 124 67.333 224 202 300c114 64 238 96 372 96c48 0 103.5 -14.333 166.5 -43s111.5 -62 145.5 -100l-3 -7c-98.667 71.333 -202 107 -310 107c-112.667 0 -217.667 -36.333 -315 -109c-105.333 -79.333 -158 -173.666 -158 -282.999
c0 -62.667 18.333 -113.5 55 -152.5s86 -58.5 148 -58.5c124 0 275.667 61.667 455 185l454 343c171.333 123.333 309.333 185 414 185c6.66699 0 12.334 -1.66699 17.001 -5c-5.33301 -16.667 -42 -57.334 -110 -122.001l-131 -122c-386 -378 -579 -673.333 -579 -886
c0 -40.667 11.667 -73.5 35 -98.5s55 -37.5 95 -37.5c71.333 0 189.333 72.667 354 218c118.667 104.667 266.334 252 443.001 442l321 351l123 126c57.333 55.333 102 92.333 134 111l44 -17c-166 -174.667 -284 -322.667 -354 -444c-14.667 -26 -110.667 -208 -288 -546
c-107.333 -204 -208.333 -366 -303 -486c-128 -162.667 -282 -303 -462 -421c-208.667 -136.667 -405.334 -205 -590.001 -205zM2218 1638c100.667 46.667 201.334 150 302 310h-177c-12.667 -98 -54.667 -198.333 -126 -301z" />
    <glyph glyph-name="Thorn" unicode="&#xde;" horiz-adv-x="1688" 
d="M1092 346c24 -4 55.333 -6 94 -6c122.667 0 225.667 43.5 309 130.5s125 192.167 125 315.5c0 181.333 -90.667 310.666 -272 387.999c-28 -77.333 -69 -215.666 -123 -414.999c-48.667 -177.333 -93 -315 -133 -413zM606 266l-8 -9.99805
c-140.667 -6.66699 -211 -49 -211 -127c0 -46 23 -81.667 69 -107c37.333 -19.333 81.333 -29 132 -29c88 0 162.667 35.667 224 107c82.667 95.333 167 288.666 253 579.999c64.667 217.333 129.667 391.333 195 522c-88 23.333 -190 35 -306 35
c-145.333 0 -277 -26.333 -395 -79c-152.667 -68.667 -229 -166.667 -229 -294c0 -146 106.333 -244.333 319 -295l8 -8l-8 -24l-12 -5c-116.667 13.333 -211.667 43 -285 89c-95.333 59.333 -143 141 -143 245c0 146 90 257 270 333c135.333 56.667 287.666 85 456.999 85
c124 0 238.667 -12.333 344 -37c98.667 168 190.667 278.667 276 332l11 2l16 -12l-4 -13c-82 -80.667 -151.667 -191.667 -209 -333c239.333 -88 359 -228.667 359 -422c0 -112.667 -39 -215.334 -117 -308.001c-74.667 -88.667 -167.667 -149 -279 -181
c-76 -22 -164 -27.667 -264 -17c-119.333 -224.667 -284.666 -337 -495.999 -337c-66 0 -129 14.667 -189 44c-73.333 36 -110 83.667 -110 143c0 96 99.667 144 299 144c12 0 23 -2.66699 33 -8v-15z" />
    <glyph glyph-name="germandbls" unicode="&#xdf;" horiz-adv-x="993" 
d="M90 -151l-12 -0.00292969c-26 29.333 -39 76.666 -39 141.999c0 66.667 15.667 155.667 47 267l156 555c84.667 300.667 217.667 504.667 399 612l14 -2c128.667 -90 193 -195 193 -315c0 -70 -29.667 -132.667 -89 -188c-16.667 -16 -71.334 -54.667 -164.001 -116
c-59.333 -38.667 -89 -74 -89 -106c0 -35.333 27 -75 81 -119c99.333 -82 162.5 -136.667 189.5 -164s40.5 -71.333 40.5 -132c0 -70 -28 -133 -84 -189c108.667 26.667 252.667 183.667 432 471l7 -10c1.33301 -9.33301 2 -23 2 -41s-35.667 -76 -107 -174
c-76.667 -105.333 -147 -181.666 -211 -228.999c-51.333 -38 -104.666 -63.333 -159.999 -76c-10.667 -1.33301 -26 -4 -46 -8c-30.667 -10.667 -61.667 -20.667 -93 -30c-33.333 -10.667 -66 -16 -98 -16c-46.667 0 -88.667 7 -126 21c-50 20 -75 50 -75 90
c0 30 14 53.667 42 71c23.333 14 51 21 83 21c16.667 0 33 -3.33301 49 -10v-8c-27.333 -17.333 -41 -40.666 -41 -69.999c0 -46 36.333 -69 109 -69c55.333 0 101.5 16.333 138.5 49s55.5 76.334 55.5 131.001c0 52.667 -25 104 -75 154l-141 122
c-50 48 -75 96.667 -75 146c0 46.667 30 99 90 157l167 155c60 66 90 132 90 198c0 78 -38.333 151.667 -115 221c-65.333 -46 -129.333 -153 -192 -321c-20 -55.333 -57.667 -177.666 -113 -366.999z" />
    <glyph glyph-name="agrave" unicode="&#xe0;" horiz-adv-x="780" 
d="M602 -11c-32.667 0 -58.833 10.668 -78.5 32.001s-29.167 48.666 -28.5 81.999v35c-86.667 -96 -156.334 -144 -209.001 -144c-49.333 0 -87.666 24.333 -114.999 73c-22.667 40.667 -34 88 -34 142c0 106.667 41.167 203.334 123.5 290.001s175.833 130 280.5 130
c62 0 111 -28.333 147 -85l37 67h119l-140 -256c-79.333 -148.667 -119 -236.334 -119 -263.001c0 -30.667 18.667 -46 56 -46c34 0 88.333 43.333 163 130c32.667 38 74.667 91.333 126 160l28 -27c-147.333 -213.333 -266 -320 -356 -320zM572.001 591.001
c-69.333 0 -147.667 -62.333 -235 -187c-83.333 -118 -125 -214.667 -125 -290c0 -20 6.33301 -38.5 19 -55.5s28.667 -25.5 48 -25.5c60.667 0 141.667 63.667 243 191c98.667 124 148 218.667 148 284c0 24 -10 43.833 -30 59.5s-42.667 23.5 -68 23.5zM752 702.001
c-100.667 46.667 -201.333 150 -302 310h177c12.667 -98 54.667 -198.333 126 -301z" />
    <glyph glyph-name="aacute" unicode="&#xe1;" horiz-adv-x="780" 
d="M602 -11c-32.667 0 -58.833 10.668 -78.5 32.001s-29.167 48.666 -28.5 81.999v35c-86.667 -96 -156.334 -144 -209.001 -144c-49.333 0 -87.666 24.333 -114.999 73c-22.667 40.667 -34 88 -34 142c0 106.667 41.167 203.334 123.5 290.001s175.833 130 280.5 130
c62 0 111 -28.333 147 -85l37 67h119l-140 -256c-79.333 -148.667 -119 -236.334 -119 -263.001c0 -30.667 18.667 -46 56 -46c34 0 88.333 43.333 163 130c32.667 38 74.667 91.333 126 160l28 -27c-147.333 -213.333 -266 -320 -356 -320zM572.001 591.001
c-69.333 0 -147.667 -62.333 -235 -187c-83.333 -118 -125 -214.667 -125 -290c0 -20 6.33301 -38.5 19 -55.5s28.667 -25.5 48 -25.5c60.667 0 141.667 63.667 243 191c98.667 124 148 218.667 148 284c0 24 -10 43.833 -30 59.5s-42.667 23.5 -68 23.5zM555 715.001
c100.667 46.667 201.333 150 302 310h-177c-12.667 -98 -54.667 -198.333 -126 -301z" />
    <glyph glyph-name="acircumflex" unicode="&#xe2;" horiz-adv-x="780" 
d="M602 -11c-32.667 0 -58.833 10.668 -78.5 32.001s-29.167 48.666 -28.5 81.999v35c-86.667 -96 -156.334 -144 -209.001 -144c-49.333 0 -87.666 24.333 -114.999 73c-22.667 40.667 -34 88 -34 142c0 106.667 41.167 203.334 123.5 290.001s175.833 130 280.5 130
c62 0 111 -28.333 147 -85l37 67h119l-140 -256c-79.333 -148.667 -119 -236.334 -119 -263.001c0 -30.667 18.667 -46 56 -46c34 0 88.333 43.333 163 130c32.667 38 74.667 91.333 126 160l28 -27c-147.333 -213.333 -266 -320 -356 -320zM572.001 591.001
c-69.333 0 -147.667 -62.333 -235 -187c-83.333 -118 -125 -214.667 -125 -290c0 -20 6.33301 -38.5 19 -55.5s28.667 -25.5 48 -25.5c60.667 0 141.667 63.667 243 191c98.667 124 148 218.667 148 284c0 24 -10 43.833 -30 59.5s-42.667 23.5 -68 23.5zM615 984.001h101
l160 -271h-52l-163 181l-297 -181h-66z" />
    <glyph glyph-name="atilde" unicode="&#xe3;" horiz-adv-x="780" 
d="M602 -11c-32.667 0 -58.833 10.668 -78.5 32.001s-29.167 48.666 -28.5 81.999v35c-86.667 -96 -156.334 -144 -209.001 -144c-49.333 0 -87.666 24.333 -114.999 73c-22.667 40.667 -34 88 -34 142c0 106.667 41.167 203.334 123.5 290.001s175.833 130 280.5 130
c62 0 111 -28.333 147 -85l37 67h119l-140 -256c-79.333 -148.667 -119 -236.334 -119 -263.001c0 -30.667 18.667 -46 56 -46c34 0 88.333 43.333 163 130c32.667 38 74.667 91.333 126 160l28 -27c-147.333 -213.333 -266 -320 -356 -320zM572.001 591.001
c-69.333 0 -147.667 -62.333 -235 -187c-83.333 -118 -125 -214.667 -125 -290c0 -20 6.33301 -38.5 19 -55.5s28.667 -25.5 48 -25.5c60.667 0 141.667 63.667 243 191c98.667 124 148 218.667 148 284c0 24 -10 43.833 -30 59.5s-42.667 23.5 -68 23.5zM886 906.001h45
c-29.333 -122 -86 -183 -170 -183c-14 0 -32.333 3 -55 9l-143 38c-27.333 7.33301 -47.333 11 -60 11c-50 0 -81.667 -26.667 -95 -80h-47c31.333 117.333 87.333 176 168 176c23.333 0 47.333 -3.33301 72 -10l143 -39c14.667 -4 30.667 -6 48 -6c48.667 0 80 28 94 84z
" />
    <glyph glyph-name="adieresis" unicode="&#xe4;" horiz-adv-x="780" 
d="M602 -11c-32.667 0 -58.833 10.668 -78.5 32.001s-29.167 48.666 -28.5 81.999v35c-86.667 -96 -156.334 -144 -209.001 -144c-49.333 0 -87.666 24.333 -114.999 73c-22.667 40.667 -34 88 -34 142c0 106.667 41.167 203.334 123.5 290.001s175.833 130 280.5 130
c62 0 111 -28.333 147 -85l37 67h119l-140 -256c-79.333 -148.667 -119 -236.334 -119 -263.001c0 -30.667 18.667 -46 56 -46c34 0 88.333 43.333 163 130c32.667 38 74.667 91.333 126 160l28 -27c-147.333 -213.333 -266 -320 -356 -320zM572.001 591.001
c-69.333 0 -147.667 -62.333 -235 -187c-83.333 -118 -125 -214.667 -125 -290c0 -20 6.33301 -38.5 19 -55.5s28.667 -25.5 48 -25.5c60.667 0 141.667 63.667 243 191c98.667 124 148 218.667 148 284c0 24 -10 43.833 -30 59.5s-42.667 23.5 -68 23.5zM394 800.001
c0 22.667 9.16699 42 27.5 58s40.5 24 66.5 24s48.333 -8 67 -24s28 -35.333 28 -58s-9.33301 -42 -28 -58s-41 -24 -67 -24s-48.167 8 -66.5 24s-27.5 35.333 -27.5 58zM729 795.001c0 22.667 9.16699 42 27.5 58s40.833 24 67.5 24c26 0 48.167 -8 66.5 -24
s27.5 -35.333 27.5 -58s-9.16699 -42 -27.5 -58s-40.5 -24 -66.5 -24c-26.667 0 -49.167 8 -67.5 24s-27.5 35.333 -27.5 58z" />
    <glyph glyph-name="aring" unicode="&#xe5;" horiz-adv-x="780" 
d="M602 -11c-32.667 0 -58.833 10.668 -78.5 32.001s-29.167 48.666 -28.5 81.999v35c-86.667 -96 -156.334 -144 -209.001 -144c-49.333 0 -87.666 24.333 -114.999 73c-22.667 40.667 -34 88 -34 142c0 106.667 41.167 203.334 123.5 290.001s175.833 130 280.5 130
c62 0 111 -28.333 147 -85l37 67h119l-140 -256c-79.333 -148.667 -119 -236.334 -119 -263.001c0 -30.667 18.667 -46 56 -46c34 0 88.333 43.333 163 130c32.667 38 74.667 91.333 126 160l28 -27c-147.333 -213.333 -266 -320 -356 -320zM572.001 591.001
c-69.333 0 -147.667 -62.333 -235 -187c-83.333 -118 -125 -214.667 -125 -290c0 -20 6.33301 -38.5 19 -55.5s28.667 -25.5 48 -25.5c60.667 0 141.667 63.667 243 191c98.667 124 148 218.667 148 284c0 24 -10 43.833 -30 59.5s-42.667 23.5 -68 23.5zM666 990.001
c-36 0 -67.499 -13.5 -94.499 -40.5s-40.5 -58.833 -40.5 -95.5c0 -28.667 9.66699 -52.667 29 -72s44.333 -29 75 -29c36.667 0 68.5 13.333 95.5 40s40.5 58.334 40.5 95.001c0 29.333 -9.83301 53.666 -29.5 72.999s-44.834 29 -75.501 29zM671.001 1041
c44.667 0 81.167 -13.499 109.5 -40.499s42.5 -61.5 42.5 -103.5c0 -52 -19.667 -96.667 -59 -134s-85.333 -56 -138 -56c-44 0 -80.167 13.667 -108.5 41s-42.5 61.666 -42.5 102.999c0 52 19.5 96.667 58.5 134s84.833 56 137.5 56z" />
    <glyph glyph-name="ae" unicode="&#xe6;" horiz-adv-x="506" 
d="M323 -6c-60.667 0 -107.668 24 -141.001 72c-29.333 42.667 -44 95.667 -44 159c0 98.667 31.333 186.667 94 264c66.667 82.667 148 124 244 124c24 0 49.667 -12.667 77 -38c24 -22.667 43 -48.667 57 -78l-12 -11c-30.667 50.667 -66 76 -106 76
c-29.333 0 -69.666 -23.333 -120.999 -70c-44.667 -41.333 -80.834 -95 -108.501 -161s-41.5 -130.667 -41.5 -194c0 -30 8.5 -56 25.5 -78s39.833 -33 68.5 -33c98 0 216.667 103.333 356 310l15 -20c-65.333 -100 -116.666 -170 -153.999 -210
c-70 -74.667 -139.667 -112 -209 -112zM554.999 698c100.667 46.667 201.333 150 302 310h-177c-12.667 -98 -54.667 -198.333 -126 -301z" />
    <glyph glyph-name="ccedilla" unicode="&#xe7;" horiz-adv-x="506" 
d="M323 -6c-60.667 0 -107.668 24 -141.001 72c-29.333 42.667 -44 95.667 -44 159c0 98.667 31.333 186.667 94 264c66.667 82.667 148 124 244 124c24 0 49.667 -12.667 77 -38c24 -22.667 43 -48.667 57 -78l-12 -11c-30.667 50.667 -66 76 -106 76
c-29.333 0 -69.666 -23.333 -120.999 -70c-44.667 -41.333 -80.834 -95 -108.501 -161s-41.5 -130.667 -41.5 -194c0 -30 8.5 -56 25.5 -78s39.833 -33 68.5 -33c98 0 216.667 103.333 356 310l15 -20c-65.333 -100 -116.666 -170 -153.999 -210
c-70 -74.667 -139.667 -112 -209 -112zM277.999 15h52.998l-35 -109c30.667 2.66699 48.334 4 53.001 4c112 0 168 -48.667 168 -146c0 -48 -19.667 -84.667 -59 -110c-33.333 -20.667 -75.666 -31 -126.999 -31c-104.667 0 -192.667 26.667 -264 80l14 34
c86.667 -40.667 157 -61 211 -61c80.667 0 121 30 121 90c0 57.333 -39.667 86 -119 86c-24 0 -49.333 -2.66699 -76 -8z" />
    <glyph glyph-name="egrave" unicode="&#xe8;" horiz-adv-x="488" 
d="M600 215c-106 -148.667 -201.001 -223.002 -285.001 -223.002c-56 0 -100.333 23.333 -133 70c-29.333 42.667 -44 93.334 -44 152.001c0 102 28.667 192.333 86 271c63.333 88 144.333 132 243 132c81.333 0 122 -31.333 122 -94c0 -54 -37 -98 -111 -132
c-56.667 -25.333 -123.667 -41.333 -201 -48c-32 -80 -48 -153.333 -48 -220c0 -24.667 8.5 -45.5 25.5 -62.5s37.833 -25.5 62.5 -25.5c52.667 0 115.667 40.667 189 122c27.333 30.667 74 92.334 140 185.001l24 -23c-15.333 -24 -38.666 -58.667 -69.999 -104z
M485.999 583.998c-42 0 -82 -22.001 -120 -66.001c-32.667 -38 -57.667 -84.667 -75 -140c182 16.667 273 65.334 273 146.001c0 40 -26 60 -78 60zM532.999 714.997c-100.667 46.667 -201.333 150 -302 310h177c12.667 -98 54.667 -198.333 126 -301z" />
    <glyph glyph-name="eacute" unicode="&#xe9;" horiz-adv-x="488" 
d="M600 215c-106 -148.667 -201.001 -223.002 -285.001 -223.002c-56 0 -100.333 23.333 -133 70c-29.333 42.667 -44 93.334 -44 152.001c0 102 28.667 192.333 86 271c63.333 88 144.333 132 243 132c81.333 0 122 -31.333 122 -94c0 -54 -37 -98 -111 -132
c-56.667 -25.333 -123.667 -41.333 -201 -48c-32 -80 -48 -153.333 -48 -220c0 -24.667 8.5 -45.5 25.5 -62.5s37.833 -25.5 62.5 -25.5c52.667 0 115.667 40.667 189 122c27.333 30.667 74 92.334 140 185.001l24 -23c-15.333 -24 -38.666 -58.667 -69.999 -104z
M485.999 583.998c-42 0 -82 -22.001 -120 -66.001c-32.667 -38 -57.667 -84.667 -75 -140c182 16.667 273 65.334 273 146.001c0 40 -26 60 -78 60zM395.999 706.997c100.667 46.667 201.333 150 302 310h-177c-12.667 -98 -54.667 -198.333 -126 -301z" />
    <glyph glyph-name="ecircumflex" unicode="&#xea;" horiz-adv-x="488" 
d="M484 -344c-41.333 -72.667 -96.667 -108.998 -166 -108.998c-40.667 0 -76.667 12.667 -108 38s-48 55.666 -50 90.999c-2.66699 49.333 16.333 99.666 57 150.999c24.667 31.333 77.334 83.666 158.001 156.999l51 45c-49.333 -24.667 -86.333 -37 -111 -37
c-56 0 -100.333 23.333 -133 70c-29.333 42.667 -44 93.334 -44 152.001c0 102 28.667 192.333 86 271c63.333 88 144.333 132 243 132c32 0 59.333 -7.33301 82 -22c26.667 -17.333 40 -41.333 40 -72c0 -54 -37 -98 -111 -132c-56.667 -25.333 -123.667 -41.333 -201 -48
c-32 -80 -48 -153.333 -48 -220c0 -24.667 8.5 -45.5 25.5 -62.5s37.833 -25.5 62.5 -25.5c52.667 0 115.667 40.667 189 122c32 36 77.333 94.667 136 176l24 -22c-79.333 -119.333 -144.666 -206.333 -195.999 -261c-40.667 -38.667 -99.334 -99.667 -176.001 -183
c-46.667 -56.667 -70 -109 -70 -157c0 -88 36.333 -132 109 -132c55.333 0 105.666 26 150.999 78zM485.999 584.002c-42 0 -82 -22.001 -120 -66.001c-32.667 -38 -57.667 -84.667 -75 -140c182 16.667 273 65.334 273 146.001c0 40 -26 60 -78 60z" />
    <glyph glyph-name="edieresis" unicode="&#xeb;" horiz-adv-x="488" 
d="M600 215c-106 -148.667 -201.001 -223.002 -285.001 -223.002c-56 0 -100.333 23.333 -133 70c-29.333 42.667 -44 93.334 -44 152.001c0 102 28.667 192.333 86 271c63.333 88 144.333 132 243 132c81.333 0 122 -31.333 122 -94c0 -54 -37 -98 -111 -132
c-56.667 -25.333 -123.667 -41.333 -201 -48c-32 -80 -48 -153.333 -48 -220c0 -24.667 8.5 -45.5 25.5 -62.5s37.833 -25.5 62.5 -25.5c52.667 0 115.667 40.667 189 122c27.333 30.667 74 92.334 140 185.001l24 -23c-15.333 -24 -38.666 -58.667 -69.999 -104z
M485.999 583.998c-42 0 -82 -22.001 -120 -66.001c-32.667 -38 -57.667 -84.667 -75 -140c182 16.667 273 65.334 273 146.001c0 40 -26 60 -78 60zM246.999 809.997c0 22.667 9.16699 42 27.5 58s40.5 24 66.5 24s48.333 -8 67 -24s28 -35.333 28 -58s-9.33301 -42 -28 -58
s-41 -24 -67 -24s-48.167 8 -66.5 24s-27.5 35.333 -27.5 58zM581.999 804.997c0 22.667 9.16699 42 27.5 58s40.833 24 67.5 24c26 0 48.167 -8 66.5 -24s27.5 -35.333 27.5 -58s-9.16699 -42 -27.5 -58s-40.5 -24 -66.5 -24c-26.667 0 -49.167 8 -67.5 24
s-27.5 35.333 -27.5 58z" />
    <glyph glyph-name="igrave" unicode="&#xec;" horiz-adv-x="569" 
d="M460 122c-74.667 -83.333 -135.334 -124.999 -182.001 -124.999c-74 0 -111 47.333 -111 142c0 49.333 42.667 153.666 128 312.999c-58 -63.333 -97.333 -107.333 -118 -132l-26 25l227 275h130l-146 -256c-82.667 -148 -124 -236.667 -124 -266
c0 -38 16.667 -57 50 -57c34.667 0 89.334 44.667 164.001 134c27.333 34 69 89.333 125 166l30 -27c-30 -42.667 -79 -106.667 -147 -192zM628 702.001c-100.667 46.667 -201.333 150 -302 310h177c12.667 -98 54.667 -198.333 126 -301z" />
    <glyph glyph-name="iacute" unicode="&#xed;" horiz-adv-x="569" 
d="M460 122c-74.667 -83.333 -135.334 -124.999 -182.001 -124.999c-74 0 -111 47.333 -111 142c0 49.333 42.667 153.666 128 312.999c-58 -63.333 -97.333 -107.333 -118 -132l-26 25l227 275h130l-146 -256c-82.667 -148 -124 -236.667 -124 -266
c0 -38 16.667 -57 50 -57c34.667 0 89.334 44.667 164.001 134c27.333 34 69 89.333 125 166l30 -27c-30 -42.667 -79 -106.667 -147 -192zM555 708.001c100.667 46.667 201.333 150 302 310h-177c-12.667 -98 -54.667 -198.333 -126 -301z" />
    <glyph glyph-name="icircumflex" unicode="&#xee;" horiz-adv-x="569" 
d="M460 122c-74.667 -83.333 -135.334 -124.999 -182.001 -124.999c-74 0 -111 47.333 -111 142c0 49.333 42.667 153.666 128 312.999c-58 -63.333 -97.333 -107.333 -118 -132l-26 25l227 275h130l-146 -256c-82.667 -148 -124 -236.667 -124 -266
c0 -38 16.667 -57 50 -57c34.667 0 89.334 44.667 164.001 134c27.333 34 69 89.333 125 166l30 -27c-30 -42.667 -79 -106.667 -147 -192zM571 1051h101l160 -271h-52l-163 181l-297 -181h-66z" />
    <glyph glyph-name="idieresis" unicode="&#xef;" horiz-adv-x="569" 
d="M460 122c-74.667 -83.333 -135.334 -124.999 -182.001 -124.999c-74 0 -111 47.333 -111 142c0 49.333 42.667 153.666 128 312.999c-58 -63.333 -97.333 -107.333 -118 -132l-26 25l227 275h130l-146 -256c-82.667 -148 -124 -236.667 -124 -266
c0 -38 16.667 -57 50 -57c34.667 0 89.334 44.667 164.001 134c27.333 34 69 89.333 125 166l30 -27c-30 -42.667 -79 -106.667 -147 -192zM216 779.001c0 22.667 9.16699 42 27.5 58s40.5 24 66.5 24s48.333 -8 67 -24s28 -35.333 28 -58s-9.33301 -42 -28 -58
s-41 -24 -67 -24s-48.167 8 -66.5 24s-27.5 35.333 -27.5 58zM551 774.001c0 22.667 9.16699 42 27.5 58s40.833 24 67.5 24c26 0 48.167 -8 66.5 -24s27.5 -35.333 27.5 -58s-9.16699 -42 -27.5 -58s-40.5 -24 -66.5 -24c-26.667 0 -49.167 8 -67.5 24
s-27.5 35.333 -27.5 58z" />
    <glyph glyph-name="eth" unicode="&#xf0;" horiz-adv-x="557" 
d="M620 419c0 -35.333 -15.666 -94.333 -46.999 -177c-24 -63.333 -59.667 -118.333 -107 -165c-54.667 -53.333 -110.334 -80 -167.001 -80c-54 0 -95.667 24.667 -125 74c-24 41.333 -36 91.333 -36 150c0 91.333 31.333 179.333 94 264c68 91.333 146 137 234 137
c37.333 0 67.333 -7.33301 90 -22l-111 270l-81 -43l-29 22l97 54l-53 140l24 5l49 -134l82 46l20 -33l-89 -47l123 -310c21.333 -30 32 -80.333 32 -151zM589.001 440c0 99.333 -31 148.999 -93 148.999c-58 0 -119.333 -61.333 -184 -184
c-59.333 -111.333 -89 -200.666 -89 -267.999c0 -74.667 31.333 -112 94 -112c41.333 0 85 24.667 131 74c37.333 40 69 87.333 95 142l20 43c17.333 56 26 108 26 156z" />
    <glyph glyph-name="ntilde" unicode="&#xf1;" horiz-adv-x="905" 
d="M739 -3c-78.667 0 -118.002 51.3311 -118.002 153.998c0 66.667 31.167 147.334 93.5 242.001s93.5 146.334 93.5 155.001c0 32 -12.333 48 -37 48c-17.333 0 -43.333 -15.333 -78 -46c-79.333 -69.333 -147.666 -153.666 -204.999 -252.999l-149 -288h-134
c178.667 295.333 267.334 474.333 266.001 537v31c-64.667 -38.667 -119.334 -79.334 -164.001 -122.001c-26.667 -26 -72 -76.333 -136 -151l-23 27c162 194 274 291 336 291c39.333 0 64.333 -19 75 -57c5.33301 -19.333 7.33301 -54.333 6 -105c94 106 169 159 225 159
c26 0 46.667 -12 62 -36c12.667 -20 19 -43.667 19 -71c0 -54 -29.5 -129 -88.5 -225s-88.5 -157 -88.5 -183c0 -42.667 18.333 -64 55 -64c58.667 0 158 101 298 303l27 -30c-36 -60 -85.333 -123.333 -148 -190c-79.333 -84 -141.666 -126 -186.999 -126zM554.998 684.998
c100.667 46.667 201.333 150 302 310h-177c-12.667 -98 -54.667 -198.333 -126 -301z" />
    <glyph glyph-name="ograve" unicode="&#xf2;" horiz-adv-x="564" 
d="M661 265c-12 -4 -41.332 -11.668 -87.999 -23.001c-26 -64 -62 -119 -108 -165c-54 -53.333 -109.333 -80 -166 -80c-54 0 -95.667 24.667 -125 74c-24 41.333 -36 91.333 -36 150c0 91.333 31.333 179.333 94 264c68 91.333 146 137 234 137
c62 0 104.667 -20.333 128 -61c17.333 -30.667 26 -78 26 -142c0 -34 -9.66699 -80.667 -29 -140c31.333 6.66699 58.333 16.334 81 29.001c9.33301 4.66699 24.666 13.667 45.999 27l23 -24c-22 -20 -48.667 -35.333 -80 -46zM496.001 588.999
c-58 0 -119.333 -61.334 -184 -184.001c-59.333 -111.333 -89 -200.666 -89 -267.999c0 -74.667 31.333 -112 94 -112c41.333 0 85 24.667 131 74c38 40.667 69.667 88 95 142c-13.333 8 -20 17 -20 27c0 18 8.33301 27.667 25 29l15 -13c17.333 56 26 108 26 156
c0 99.333 -31 149 -93 149zM634.001 701.998c-100.667 46.667 -201.333 150 -302 310h177c12.667 -98 54.667 -198.333 126 -301z" />
    <glyph glyph-name="oacute" unicode="&#xf3;" horiz-adv-x="564" 
d="M661 265c-12 -4 -41.332 -11.668 -87.999 -23.001c-26 -64 -62 -119 -108 -165c-54 -53.333 -109.333 -80 -166 -80c-54 0 -95.667 24.667 -125 74c-24 41.333 -36 91.333 -36 150c0 91.333 31.333 179.333 94 264c68 91.333 146 137 234 137
c62 0 104.667 -20.333 128 -61c17.333 -30.667 26 -78 26 -142c0 -34 -9.66699 -80.667 -29 -140c31.333 6.66699 58.333 16.334 81 29.001c9.33301 4.66699 24.666 13.667 45.999 27l23 -24c-22 -20 -48.667 -35.333 -80 -46zM496.001 588.999
c-58 0 -119.333 -61.334 -184 -184.001c-59.333 -111.333 -89 -200.666 -89 -267.999c0 -74.667 31.333 -112 94 -112c41.333 0 85 24.667 131 74c38 40.667 69.667 88 95 142c-13.333 8 -20 17 -20 27c0 18 8.33301 27.667 25 29l15 -13c17.333 56 26 108 26 156
c0 99.333 -31 149 -93 149zM555.001 683.998c100.667 46.667 201.333 150 302 310h-177c-12.667 -98 -54.667 -198.333 -126 -301z" />
    <glyph glyph-name="ocircumflex" unicode="&#xf4;" horiz-adv-x="564" 
d="M661 265c-12 -4 -41.332 -11.668 -87.999 -23.001c-26 -64 -62 -119 -108 -165c-54 -53.333 -109.333 -80 -166 -80c-54 0 -95.667 24.667 -125 74c-24 41.333 -36 91.333 -36 150c0 91.333 31.333 179.333 94 264c68 91.333 146 137 234 137
c62 0 104.667 -20.333 128 -61c17.333 -30.667 26 -78 26 -142c0 -34 -9.66699 -80.667 -29 -140c31.333 6.66699 58.333 16.334 81 29.001c9.33301 4.66699 24.666 13.667 45.999 27l23 -24c-22 -20 -48.667 -35.333 -80 -46zM496.001 588.999
c-58 0 -119.333 -61.334 -184 -184.001c-59.333 -111.333 -89 -200.666 -89 -267.999c0 -74.667 31.333 -112 94 -112c41.333 0 85 24.667 131 74c38 40.667 69.667 88 95 142c-13.333 8 -20 17 -20 27c0 18 8.33301 27.667 25 29l15 -13c17.333 56 26 108 26 156
c0 99.333 -31 149 -93 149zM615.001 974.998h101l160 -271h-52l-163 181l-297 -181h-66z" />
    <glyph glyph-name="otilde" unicode="&#xf5;" horiz-adv-x="564" 
d="M661 265c-12 -4 -41.332 -11.668 -87.999 -23.001c-26 -64 -62 -119 -108 -165c-54 -53.333 -109.333 -80 -166 -80c-54 0 -95.667 24.667 -125 74c-24 41.333 -36 91.333 -36 150c0 91.333 31.333 179.333 94 264c68 91.333 146 137 234 137
c62 0 104.667 -20.333 128 -61c17.333 -30.667 26 -78 26 -142c0 -34 -9.66699 -80.667 -29 -140c31.333 6.66699 58.333 16.334 81 29.001c9.33301 4.66699 24.666 13.667 45.999 27l23 -24c-22 -20 -48.667 -35.333 -80 -46zM496.001 588.999
c-58 0 -119.333 -61.334 -184 -184.001c-59.333 -111.333 -89 -200.666 -89 -267.999c0 -74.667 31.333 -112 94 -112c41.333 0 85 24.667 131 74c38 40.667 69.667 88 95 142c-13.333 8 -20 17 -20 27c0 18 8.33301 27.667 25 29l15 -13c17.333 56 26 108 26 156
c0 99.333 -31 149 -93 149zM886.001 906.998h45c-29.333 -122 -86 -183 -170 -183c-14 0 -32.333 3 -55 9l-143 38c-27.333 7.33301 -47.333 11 -60 11c-50 0 -81.667 -26.667 -95 -80h-47c31.333 117.333 87.333 176 168 176c23.333 0 47.333 -3.33301 72 -10l143 -39
c14.667 -4 30.667 -6 48 -6c48.667 0 80 28 94 84z" />
    <glyph glyph-name="odieresis" unicode="&#xf6;" horiz-adv-x="564" 
d="M661 265c-12 -4 -41.332 -11.668 -87.999 -23.001c-26 -64 -62 -119 -108 -165c-54 -53.333 -109.333 -80 -166 -80c-54 0 -95.667 24.667 -125 74c-24 41.333 -36 91.333 -36 150c0 91.333 31.333 179.333 94 264c68 91.333 146 137 234 137
c62 0 104.667 -20.333 128 -61c17.333 -30.667 26 -78 26 -142c0 -34 -9.66699 -80.667 -29 -140c31.333 6.66699 58.333 16.334 81 29.001c9.33301 4.66699 24.666 13.667 45.999 27l23 -24c-22 -20 -48.667 -35.333 -80 -46zM496.001 588.999
c-58 0 -119.333 -61.334 -184 -184.001c-59.333 -111.333 -89 -200.666 -89 -267.999c0 -74.667 31.333 -112 94 -112c41.333 0 85 24.667 131 74c38 40.667 69.667 88 95 142c-13.333 8 -20 17 -20 27c0 18 8.33301 27.667 25 29l15 -13c17.333 56 26 108 26 156
c0 99.333 -31 149 -93 149zM225.001 802.998c0 22.667 9.16699 42 27.5 58s40.5 24 66.5 24s48.333 -8 67 -24s28 -35.333 28 -58s-9.33301 -42 -28 -58s-41 -24 -67 -24s-48.167 8 -66.5 24s-27.5 35.333 -27.5 58zM560.001 797.998c0 22.667 9.16699 42 27.5 58
s40.833 24 67.5 24c26 0 48.167 -8 66.5 -24s27.5 -35.333 27.5 -58s-9.16699 -42 -27.5 -58s-40.5 -24 -66.5 -24c-26.667 0 -49.167 8 -67.5 24s-27.5 35.333 -27.5 58z" />
    <glyph glyph-name="divide" unicode="&#xf7;" horiz-adv-x="1124" 
d="M562 1075c24 0 44.5 -8.5 61.5 -25.5s25.5 -37.5 25.5 -61.5c0 -24.667 -8.5 -45.334 -25.5 -62.001s-37.833 -25 -62.5 -25c-24 0 -44.5 8.5 -61.5 25.5s-25.5 37.5 -25.5 61.5c0 24.667 8.5 45.334 25.5 62.001s37.833 25 62.5 25zM1101 640h-1078v82h1078v-82z
M562 455c24.667 0 45.5 -8.5 62.5 -25.5s25.5 -37.833 25.5 -62.5c0 -24 -8.66699 -44.667 -26 -62s-38 -26 -62 -26s-44.667 8.66699 -62 26s-26 38 -26 62c0 24.667 8.5 45.5 25.5 62.5s37.833 25.5 62.5 25.5z" />
    <glyph glyph-name="oslash" unicode="&#xf8;" horiz-adv-x="629" 
d="M225 161l352.998 372c-13.333 37.333 -40.666 56 -81.999 56c-54.667 0 -112.667 -55 -174 -165c-55.333 -98 -87.666 -185.667 -96.999 -263zM586.998 490l-360 -392c11.333 -48.667 41.333 -73 90 -73c41.333 0 85 24.667 131 74c38 40.667 69.667 88 95 142
c-13.333 8 -20 17 -20 27c0 18 8.33301 27.667 25 29l15 -13c17.333 56 26 108 26 156c0 20 -0.666992 36.667 -2 50zM700.998 617l-89.998 -101.001c6 -24.667 9 -57 9 -97c0 -34 -9.66699 -80.667 -29 -140c31.333 6.66699 58.333 16.334 81 29.001
c9.33301 4.66699 24.666 13.667 45.999 27l23 -24c-22 -20 -48.667 -35.333 -80 -46c-12 -4 -41.333 -11.667 -88 -23c-26 -64 -62 -119 -108 -165c-54 -53.333 -109.333 -80 -166 -80c-46.667 0 -84.334 18.667 -113.001 56l-75 -84l-24 39l76 85
c-16.667 38 -25 80.667 -25 128c0 91.333 31.333 179.333 94 264c68 91.333 146 137 234 137c65.333 0 109.333 -22.667 132 -68l79 87z" />
    </font>
</defs>
</svg>
